Малюк Джо / Little Joe (2019) 1080p Ukr/Eng | Sub Ukr/Eng

Нові коментарі

Нова тема   Відповісти
Автор Повідомлення
Anonymous 







2020-04-21 14:47  
Малюк Джо / Little Joe (2019) 1080p Ukr/Eng | Sub Ukr/Eng

Малюк Джо / Little Joe (2019) 1080p Ukr/Eng | Sub Ukr/Eng


Жанр: драма, жахи, детектив, наукова фантастика
Країна: Австрія, Велика Британія, Німеччина



Кінокомпанія: Coop99 Filmproduktion, The Bureau, Essential Filmproduktion GmbH
Режисер: Джессіка Гауснер
Актори: Емілі Бічем, Бен Вішоу, Кіт Коннор, Керрі Фокс, Фенікс Бросард

Сюжет:
Мати-одиначка Еліс працює старшим агрономом у корпорації з виведення нових видів. Вона створила незвичайну малинову квітку, визначну не тільки своєю красою, але і цілющими властивостями: якщо її тримати при ідеальній температурі, правильно підживлювати і регулярно розмовляти з нею, ця рослина робить свого власника щасливим. Всупереч політиці компанії, Еліс забирає одну з рослин додому як подарунок для власного сина, підлітка Джо. Вони називають її «малюк Джо», але разом із квіткою починають рости і підозри Еліс: це творіння може бути не такими невинним, як його ім’я.


Тривалість: 01:45:18
Якість:
Відео:
розмір кадру: 1920 х 1040
бітрейт: 7600 кб/с

Аудіо # 1:
мова: українська
переклад: багатоголосий закадровий | Arthouse Traffic
кодек: 2.0
бітрейт: 192 кб/с

Аудіо # 2:
мова: англійська
переклад: оригінал
кодек: 5.1
бітрейт: 640 кб/с

Субтитри:
мова: українська
тип: програмні (м'які)
формат: *.srt

Субтитри:
мова: англійська
тип: програмні (м'які)
формат: *.srt
Info
Format :
Format version : Version 4
File size : 6.20 GiB
Duration : 1 h 45 min
Overall bit rate : 8 435 kb/s
Encoded date : UTC 2020-04-21 11:39:00
Writing application : v44.0.0 ('Domino') 64-bit
Writing library : libebml v1.3.10 + v1.5.2
Cover : Yes
Attachments : cover.jpg

Video
ID : 1
Format : AVC
Format/Info : Advanced Video Codec
Format profile : [email protected]
Format settings : CABAC / 4 Ref Frames
Format settings, CABAC : Yes
Format settings, Reference : 4 frames
Codec ID : V_MPEG4/ISO/AVC
Duration : 1 h 45 min
Bit rate mode : Constant
Bit rate : 7 600 kb/s
Nominal bit rate : 10 000 kb/s
Width : 1 920 pixels
Height : 1 040 pixels
Display aspect ratio : 1.85:1
Frame rate mode : Constant
Frame rate : 23.976 (24000/1001) FPS
Color space : YUV
Chroma subsampling : 4:2:0
Bit depth : 8 bits
Scan type : Progressive
Bits/(Pixel*Frame) : 0.159
Stream size : 5.59 GiB (90%)
Language : English
Default : Yes
Forced : No
Color range : Limited
Color primaries : BT.709
Transfer characteristics : BT.709
Matrix coefficients : BT.709

Audio #1
ID : 2
Format : AC-3
Format/Info : Audio Coding 3
Commercial name : Dolby Digital
Codec ID : A_AC3
Duration : 1 h 45 min
Bit rate mode : Constant
Bit rate : 192 kb/s
Channel(s) : 2 channels
Channel layout : L R
Sampling rate : 48.0 kHz
Frame rate : 31.250 FPS (1536 SPF)
Compression mode : Lossy
Stream size : 145 MiB (2%)
Language : Ukrainian
Service kind : Complete Main
Default : Yes
Forced : Yes

Audio #2
ID : 3
Format : E-AC-3
Format/Info : Enhanced AC-3
Commercial name : Dolby Digital Plus
Codec ID : A_EAC3
Duration : 1 h 45 min
Bit rate mode : Constant
Bit rate : 640 kb/s
Channel(s) : 6 channels
Channel layout : L R C LFE Ls Rs
Sampling rate : 48.0 kHz
Frame rate : 31.250 FPS (1536 SPF)
Compression mode : Lossy
Stream size : 482 MiB (8%)
Language : English
Service kind : Complete Main
Default : No
Forced : No

Text #1
ID : 4
Format : UTF-8
Codec ID : S_TEXT/UTF8
Codec ID/Info : UTF-8 Plain Text
Duration : 1 h 38 min
Bit rate : 69 b/s
Count of elements : 1061
Stream size : 49.7 KiB (0%)
Language : Ukrainian
Default : No
Forced : No

Text #2
ID : 5
Format : UTF-8
Codec ID : S_TEXT/UTF8
Codec ID/Info : UTF-8 Plain Text
Duration : 1 h 42 min
Bit rate : 48 b/s
Count of elements : 1222
Stream size : 36.4 KiB (0%)
Language : English
Default : No
Forced : No
Скріншоти













Джерело:
Особиста оцінка: 0 - не дивився


 Трекер:    Зареєстрований   

Завантажити / скачати фільм українською



відео для новачків



 Зареєстрований:   2020-04-21 14:47
 Розмір:   6.2 GB 
 Оцінка фільму:   8.3/10 (Голосів: 15)
   
Інші релізи
   Малюк Джо / Little Joe (2019) 720p Ukr/Eng | Sub Ukr ssTAss  2 / 0   2.32 GB   2020-04-26 22:32 
padalkaandrey 
VIP


З нами з: 04.09.09
Востаннє: 22.10.20
Повідомлень: 265

2020-04-22 12:33  
Меньший розмір планується. Дякую.
VINRARUS 
Поважний учасник


З нами з: 16.11.11
Востаннє: 18.10.20
Повідомлень: 211

2020-04-25 17:15  
padalkaandrey написано:
Меньший

Менший. Wink (2)

ssTAss 
Модератор музики


З нами з: 05.07.08
Востаннє: 22.10.20
Повідомлень: 16905

2020-04-26 22:34  
Anonymous написано:
Кінокомпанія: Karl Landsteiner Privatuniversität für Gesundheitswissenschaften, Krems an der Donau, Austria

це не кінокомпанії)
це локалізація, де знімалось
padalkaandrey написано:
Меньший розмір планується.

720 https://toloka.to/t110152

Infoserfer 
Свій


З нами з: 31.10.09
Востаннє: 22.10.20
Повідомлень: 146

2020-04-29 23:21  
Ідея фільму цікава, та й по всьому. Сама стрічка затягнута й нуднувата, ще й фінал безрадісний.
Звукове оформлення місцями просто жахливе - пронизливий ультразвук не додає відчуття тривожності, а лише ріже вуха, ще й інколи замість неспокою струнних інструментів вставляють зміксований собачий гавкіт (цього "ноу-хау" я зовсім не зацінив, адже собак на цей час в кадрі нема).
Висновок (бачений уже в багатьох інших фільмах): не маніпулюйте погано вивченими генами й вірус-векторами, інакше вони почнуть маніпулювати вами.
Можливо, сподобається любителям артхаусу чи прихильникам медитативно-повільних фільмів.
От якби хронометраж стиснули в чотири рази - вийшла б доволі непогана короткометражка.
А так - 4/10.

kotsjkyy 
Новенький


З нами з: 10.02.12
Востаннє: 21.10.20
Повідомлень: 11

2020-04-30 18:41  
страшні звуки просто. Писк якийсь, шарік що скаче. Зіпсували гарну ідею. дивитись не можливо
Ваш часовий пояс: GMT + 2 Години

Нова тема   Відповісти