Молодість за страховкою / Wild Oats (2016) AVC Ukr/Eng

Нові коментарі

Нова тема   Відповісти
Автор Повідомлення
Arsenfpu 
Відео Гуртом - фільмокрай
Відео Гуртом - фільмокрай


З нами з: 30.04.09
Востаннє: 04.07.20
Повідомлень: 7031

2020-04-21 11:19  
Молодість за страховкою / Wild Oats (2016) AVC Ukr/Eng

Молодість за страховкою / Wild Oats (2016) AVC Ukr/Eng


Жанр: пригодницький, комедія
Країна: Німеччина, США



Кінокомпанія: Wild Pictures, Defiant Pictures, Alliance Cinema
Режисер: Енді Теннант
Актори: Ширлі Маклейн, Джессіка Ленг, Демі Мур, Біллі Конноллі, Джадд Хірш, Метт Уолш, Ребекка Да Коста, Говард Хессеман, Стефані Бічем, Джей Хейден, Сантьяго Сегура, Айлін Грабба, Марни Карпентер

Сюжет:
Головна героїня картини, недавно овдовіла шкільна вчителька - пенсіонерка, якій доля несподівано підкинула золоту жилу. Від своєї страхової компанії вона отримує чек, випадково виписаний на 5 мільйонів доларів. До належної виплати в 50 тисяч доларів помилково приписали кілька нулів. Разом з найкращою подругою вони вирішують, що до свого поважного віку можуть дозволити собі наплювати на всі правила і хоч раз пожити заради себе. Залишивши колишнє життя і дорослу дочку, Єва відправляється з подругою в розкішну подорож на іспанський острів Гран - Канарія. Відразу втікачки стають зірками американських ЗМІ, переслідувані страховим агентом, який повинен розібратися в цьому грандіозному фінансовому непорозумінні ....


Тривалість: 01:27:24
Якість:
Відео:
кодек:
розмір кадру: 1 024 х 432
бітрейт: 2 400 кб/с

Аудіо # 1:
мова: українська
переклад: багатоголосий закадровий
кодек: 2.0
бітрейт: 192 кб/с

Аудіо # 2:
мова: англійська
переклад: оригінал
кодек: 2.0
бітрейт: 192 кб/с
Скріншоти














Про файл
General
Unique ID : 36161742916134822642838035083222072423 (0x1B347F9404E1830A122FC72A594C3C67)
Complete name : C:\Wild Oats (2016) [Ukr,Eng] AVC [Hurtom].
Format :
Format version : Version 4 / Version 2
File size : 1.70 GiB
Duration : 1 h 27 min
Overall bit rate : 2 786 kb/s
Movie name : Молодість за страховкою / Wild Oats (2016)
Encoded date : UTC 2020-04-25 13:17:07
Writing application : v21.0.0 ('Tardigrades Will Inherit The Earth') 32-bit
Writing library : libebml v1.3.5 + v1.4.8
Cover : Yes
Attachments : cover.jpg

Video
ID : 1
Format : AVC
Format/Info : Advanced Video Codec
Format profile : [email protected]
Format settings, CABAC : Yes
Format settings, ReFrames : 4 frames
Codec ID : V_MPEG4/ISO/AVC
Duration : 1 h 27 min
Bit rate : 2 400 kb/s
Width : 1 024 pixels
Height : 432 pixels
Display aspect ratio : 2.40:1
Frame rate mode : Constant
Frame rate : 25.000 FPS
Color space : YUV
Chroma subsampling : 4:2:0
Bit depth : 8 bits
Scan type : Progressive
Bits/(Pixel*Frame) : 0.217
Stream size : 1.47 GiB (86%)
Writing library : core 157 r2935 545de2f
Encoding settings : cabac=1 / ref=3 / deblock=1:-1:-1 / analyse=0x3:0x113 / me=hex / subme=7 / psy=1 / psy_rd=1.00:0.15 / mixed_ref=1 / me_range=16 / chroma_me=1 / trellis=1 / 8x8dct=1 / cqm=0 / deadzone=21,11 / fast_pskip=1 / chroma_qp_offset=-3 / threads=12 / lookahead_threads=2 / sliced_threads=0 / nr=0 / decimate=1 / interlaced=0 / bluray_compat=0 / constrained_intra=0 / bframes=3 / b_pyramid=2 / b_adapt=1 / b_bias=0 / direct=1 / weightb=1 / open_gop=0 / weightp=2 / keyint=250 / keyint_min=25 / scenecut=40 / intra_refresh=0 / rc_lookahead=40 / rc=2pass / mbtree=1 / bitrate=2400 / ratetol=1.0 / qcomp=0.60 / qpmin=0 / qpmax=69 / qpstep=4 / cplxblur=20.0 / qblur=0.5 / ip_ratio=1.40 / aq=1:1.00
Default : Yes
Forced : No

Audio #1
ID : 2
Format : AC-3
Format/Info : Audio Coding 3
Mode extension : CM (complete main)
Format settings, Endianness : Big
Codec ID : A_AC3
Duration : 1 h 27 min
Bit rate mode : Constant
Bit rate : 192 kb/s
Channel(s) : 2 channels
Channel positions : Front: L R
Sampling rate : 48.0 kHz
Frame rate : 31.250 FPS (1536 spf)
Compression mode : Lossy
Stream size : 120 MiB (7%)
Title : К1
Language : Ukrainian
Default : Yes
Forced : Yes

Audio #2
ID : 3
Format : AC-3
Format/Info : Audio Coding 3
Mode extension : CM (complete main)
Format settings, Endianness : Big
Codec ID : A_AC3
Duration : 1 h 27 min
Bit rate mode : Constant
Bit rate : 192 kb/s
Channel(s) : 2 channels
Channel positions : Front: L R
Sampling rate : 48.0 kHz
Frame rate : 31.250 FPS (1536 spf)
Compression mode : Lossy
Stream size : 120 MiB (7%)
Language : English
Default : No
Forced : No
Джерело:
Особиста оцінка: не дивився


 Трекер:    Зареєстрований   

Завантажити / скачати фільм українською



відео для новачків



 Зареєстрований:   2020-04-25 17:09
 Розмір:   1.7 GB 
 Оцінка фільму:   8.4/10 (Голосів: 7)
   
bot 
робот


З нами з: 30.09.07
Востаннє: 26.05.05
Повідомлень: 24938

2020-04-25 17:09  
Тему перенесено з Анонси релізів до форуму Фільми


Arsenfpu

F14 
Свій


З нами з: 13.07.11
Востаннє: 03.07.20
Повідомлень: 144

2020-05-25 19:39  
Десь половина кіно нічо так, а от під кінець якось трохи банально і примітивно. Ну таке, для відпочинку... коли нудно - можна подивитися.
Ваш часовий пояс: GMT + 2 Години

Нова тема   Відповісти