Хрестоносці / Krzyzacy (1960) Ukr/Pol

Нові коментарі

Нова тема   Відповісти
Автор Повідомлення
21jumpstreet 
VIP


З нами з: 03.07.12
Востаннє: 05.07.20
Повідомлень: 1091

2020-04-21 00:05  
Хрестоносці / Krzyzacy (1960) Ukr/Pol


Хрестоносці / Krzyzacy (1960) Ukr/Pol


Жанр: історичний, драма, пригодницький
Країна: Польща



Кінокомпанія: Zespol Filmowy "Studio"
Режисер: Олександр Форд
Актори: Урсула Моджинська, Гражина Станішевська, Анджей Залавський, Генрік Боровський та ін.

Сюжет:
Фільм за мотивами одноіменного романа Генріха Сенкевича про боротьбу поляків проти лицарів Тевтонського ордену на рубежі XIV - XV століть, кульмінацією якої стала Грюнвальдська битва — битва, що відбулася під час «Великої війни» 1409—1411 років між військами держави Тевтонського ордену(Civitas Ordinis Theutonici) та об'єднаними військами Королівства Польського і Великого князівства Литовського, Руського і Жемайтійського поблизу сіл Грюнвальд (тоді - Грюнефельде) і Танненберг - нині Стембарк (землі державиТевтонського ордену, нині територія Польщі) 15 липня 1410.
Тевтонці планують експансію на східні землі. Король Ягайло та князь Мазовецький вдаються до дипломатичних перемовин з метою уникнути збройного протистояння. Тим часом тевтонці-хрестоносці вбивають дружину та викрадають дочку шляхтича Юранда...


Тривалість: 02:52:38
Якість:
Відео:
кодек:
розмір кадру: 720 х 304
бітрейт: 1878 кб/с

Аудіо # 1:
мова: українська
переклад: двоголосий закадровий
кодек: 2.0
бітрейт: 192 кб/с
Ролі озвучили: Олексій Семенов та жіночий голос (прохання розпізнати)

Аудіо # 2: (окремо)
мова: польська
переклад: оригінал
кодек: 5.1
бітрейт: 448 кб/с
Скріншоти



Info
C:\Krzyzacy (1960) [Ukr] [Hurtom]\Krzyzacy (1960) [Ukr] [Hurtom].avi
General
Complete name : C:\Krzyzacy (1960) [Ukr] [Hurtom]\Krzyzacy (1960) [Ukr] [Hurtom].avi
Format : AVI
Format/Info : Audio Video Interleave
Format profile : OpenDML
File size : 2.51 GiB
Duration : 2 h 52 min
Overall bit rate : 2 081 kb/s
Movie name : Krzyzacy.1960.Aleksander.Ford
Director : HRIME
Writing application : VirtualDubMod 1.5.10.2 (build 2540/release)
Writing library : VirtualDubMod build 2540/release
Original source form/Name : Movie
Copyright : HQ-ViDEO
Comment : 09.10.2019
Video #0
ID : 0
Format : MPEG-4 Visual
Format profile : Advanced [email protected]
Format settings, BVOP : 1
Format settings, QPel : No
Format settings, GMC : No warppoints
Format settings, Matrix : Custom
Codec ID :
Codec ID/Hint :
Duration : 2 h 52 min
Bit rate : 1 878 kb/s
Width : 720 pixels
Height : 304 pixels
Display aspect ratio : 2.35:1
Frame rate : 24.000 FPS
Color space : YUV
Chroma subsampling : 4:2:0
Bit depth : 8 bits
Scan type : Progressive
Compression mode : Lossy
Bits/(Pixel*Frame) : 0.357
Stream size : 2.26 GiB (90%)
Writing library : 67
Audio #1
ID : 1
Format : AC-3
Format/Info : Audio Coding 3
Mode extension : CM (complete main)
Format settings, Endianness : Big
Codec ID : 2000
Duration : 2 h 52 min
Bit rate mode : Constant
Bit rate : 192 kb/s
Channel(s) : 2 channels
Channel positions : Front: L R
Sampling rate : 48.0 kHz
Frame rate : 31.250 FPS (1536 spf)
Compression mode : Lossy
Stream size : 237 MiB (9%)
Alignment : Split accross interleaves
Interleave, duration : 42 ms (1.00 video frame)
Interleave, preload duration : 500 ms
Величезні та найщиріші подяки:
Запис звуку з ТБ: - krigg070
Зведення: kryk-v.ya.
Виготовлення локалізованого постера: DanyZemlyanoy

Якщо в когось є бажання викласти Remux, то можете взятися.


Срібний реліз (на рейтинг впливає 50% завантаженого)
 Трекер:    Зареєстрований   

Завантажити / скачати фільм українською



відео для новачків



 Зареєстрований:   2020-04-21 08:49
 Розмір:   3.05 GB 
 Оцінка фільму:   6.6/10 (Голосів: 11)
   
Інші релізи
   Хрестоносці / Krzyzacy (1960) Tanat13  1 / 0   2.53 GB   2013-02-21 00:05 
bot 
робот


З нами з: 30.09.07
Востаннє: 26.05.05
Повідомлень: 24971

2020-04-21 00:08  
Тему перенесено з Фільми до форуму Анонси релізів


21jumpstreet

bot 
робот


З нами з: 30.09.07
Востаннє: 26.05.05
Повідомлень: 24971

2020-04-21 08:49  
Тему перенесено з Анонси релізів до форуму Фільми


21jumpstreet

21jumpstreet 
VIP


З нами з: 03.07.12
Востаннє: 05.07.20
Повідомлень: 1091

2020-04-21 08:53  
Є ще одна двоголоска від каналу СТБ. Додавати не бачу сенсу:
1) озвучка накладена поверх рос дабу; чути добряче рос. даб, ріже слух
2) ніхто не роздає.

Озвучення з ентер фільму якісне і накладене на оригінал.

Ваш часовий пояс: GMT + 2 Години

Нова тема   Відповісти