Гостя / The Host (2013) Remux 1080p 2хUkr/Eng | Sub Eng

Нові коментарі

Нова тема   Відповісти
Останній раз роздавалося MakRA (2020-10-01)
Автор Повідомлення
Anonymous 







2020-04-20 19:23  


Гостя / The Host (2013) Remux 1080p 2хUkr/Eng | Sub Eng



«Найбільш дивний зі світів»



Гостя / The Host (2013) Remux 1080p 2хUkr/Eng | Sub Eng



Жанр: пригодницький, романтичний, фантастика
Країна: США











Кінокомпанія: Chockstone Pictures, Nick Wechsler Productions, Silver Reel
Режисер: Ендрю Ніккол
Актори: Сірша Ронан, Макс Айронс, Джейк Абель, Даян Крюґер, Вільям Герт, Чендлер Кентербері, Френсіс Фішер


Сюжет:
Інопланетна цивілізація окупувала тіла майже всіх людей на планеті. Вціліли одиниці. Бунтівники ховаються в пустелі і шукають шанс на порятунок... Одна з "Душ", яка іменує себе Мандрівниця, намагається захопити тіло Мелані. Проте стається несподіване: Мелані залишається живою, і їм доводиться співіснувати в одному тілі. Турбота Мелані про молодшого брата і щире кохання до Джеймі змушують Мандрівницю відчути ті ж емоції і стати на захист людей. Майбутнє всієї планети в руках однієї людини!



Тривалість: 02:05:38
Якість: Blu-Ray Remux 1080p


Відео:
кодек:
розмір кадру: 1920 x 1080
бітрейт: 31600 кб/с

Аудіо # 1:
мова: українська
переклад: професійний дубльований
кодек: 5.1
бітрейт: 384 кб/с

Аудіо # 2:
мова: українська
переклад: багатоголосий закадровий
кодек: 2.0 (стерео)
бітрейт: 192 кб/с

Аудіо # 3:
мова: англійська
переклад: оригінал
кодек: 5.1
бітрейт: 448 кб/с

Аудіо # 4:
мова: англійська
переклад: оригінал
кодек: -HD МА 5.1
бітрейт: 3707 кб/с

Аудіо # 5:
мова: англійська
переклад: оригінал |Commentary|
кодек: 2.0
бітрейт: 192 кб/с

Субтитри:
мова: англійська
тип: програмні (м'які)
формат: *.srt


Збережено оригінальні розділи, як на Blu-ray

Info
Код:
General
Complete name                            : The Host (2013) Blu-Ray Remux 1080p [2xukr, eng] [Video_Hurtom].
Format                                   :
Format version                           : Version 4
File size                                : 32.0 GiB
Duration                                 : 2 h 5 min
Overall bit rate mode                    : Variable
Overall bit rate                         : 36.5 Mb/s
Movie name                               : Гостя / The Host (2013)
Encoded date                             : UTC 2020-04-20 15:46:42
Writing application                      : v30.1.0 ('Forever And More') 64-bit
Writing library                          : libebml v1.3.6 + v1.4.9
Cover                                    : Yes
Attachments                              : cover.jpg

Video
ID                                       : 1
Format                                   : AVC
Format/Info                              : Advanced Video Codec
Format profile                           : [email protected]
Format settings                          : CABAC / 4 Ref Frames
Format settings, CABAC                   : Yes
Format settings, RefFrames               : 4 frames
Codec ID                                 : V_MPEG4/ISO/AVC
Duration                                 : 2 h 5 min
Bit rate mode                            : Variable
Bit rate                                 : 31.6 Mb/s
Maximum bit rate                         : 35.0 Mb/s
Width                                    : 1 920 pixels
Height                                   : 1 080 pixels
Display aspect ratio                     : 16:9
Frame rate mode                          : Constant
Frame rate                               : 23.976 (24000/1001) FPS
Color space                              : YUV
Chroma subsampling                       : 4:2:0
Bit depth                                : 8 bits
Scan type                                : Progressive
Bits/(Pixel*Frame)                       : 0.635
Stream size                              : 27.7 GiB (86%)
Title                                    : Гостья-The.Host.(2013).Remux.[1080p]
Language                                 : English
Default                                  : Yes
Forced                                   : No

Audio #1
ID                                       : 2
Format                                   : AC-3
Format/Info                              : Audio Coding 3
Commercial name                          : Dolby Digital
Codec ID                                 : A_AC3
Duration                                 : 2 h 5 min
Bit rate mode                            : Constant
Bit rate                                 : 384 kb/s
Channel(s)                               : 6 channels
Channel layout                           : L R C LFE Ls Rs
Sampling rate                            : 48.0 kHz
Frame rate                               : 31.250 FPS (1536 SPF)
Bit depth                                : 16 bits
Compression mode                         : Lossy
Stream size                              : 345 MiB (1%)
Title                                    : [DVD] , 6 ch, 384 Кбт/с
Language                                 : Ukrainian
Service kind                             : Complete Main
Default                                  : Yes
Forced                                   : No

Audio #2
ID                                       : 3
Format                                   : AC-3
Format/Info                              : Audio Coding 3
Commercial name                          : Dolby Digital
Codec ID                                 : A_AC3
Duration                                 : 2 h 5 min
Bit rate mode                            : Constant
Bit rate                                 : 192 kb/s
Channel(s)                               : 2 channels
Channel layout                           : L R
Sampling rate                            : 48.0 kHz
Frame rate                               : 31.250 FPS (1536 SPF)
Bit depth                                : 16 bits
Compression mode                         : Lossy
Stream size                              : 173 MiB (1%)
Title                                    : [Volia Cine+] , 2 ch, 192 Кбт/с
Language                                 : Ukrainian
Service kind                             : Complete Main
Default                                  : No
Forced                                   : No

Audio #3
ID                                       : 4
Format                                   : AC-3
Format/Info                              : Audio Coding 3
Commercial name                          : Dolby Digital
Codec ID                                 : A_AC3
Duration                                 : 2 h 5 min
Bit rate mode                            : Constant
Bit rate                                 : 448 kb/s
Channel(s)                               : 6 channels
Channel layout                           : L R C LFE Ls Rs
Sampling rate                            : 48.0 kHz
Frame rate                               : 31.250 FPS (1536 SPF)
Bit depth                                : 16 bits
Compression mode                         : Lossy
Stream size                              : 403 MiB (1%)
Title                                    : [Original] , 6 ch, 448 Кбт/с
Language                                 : English
Service kind                             : Complete Main
Default                                  : No
Forced                                   : No

Audio #4
ID                                       : 5
Format                                   : XLL
Format/Info                              : Digital Theater Systems
Commercial name                          : -HD Master Audio
Codec ID                                 : A_DTS
Duration                                 : 2 h 5 min
Bit rate mode                            : Variable
Bit rate                                 : 3 707 kb/s
Channel(s)                               : 6 channels
Channel layout                           : C L R Ls Rs LFE
Sampling rate                            : 48.0 kHz
Frame rate                               : 93.750 FPS (512 SPF)
Bit depth                                : 24 bits
Compression mode                         : Lossless
Stream size                              : 3.25 GiB (10%)
Title                                    : [Original] -HD МА, 6 ch, 3707 Кбт/с
Language                                 : English
Default                                  : No
Forced                                   : No

Audio #5
ID                                       : 6
Format                                   : AC-3
Format/Info                              : Audio Coding 3
Commercial name                          : Dolby Digital
Codec ID                                 : A_AC3
Duration                                 : 2 h 5 min
Bit rate mode                            : Constant
Bit rate                                 : 192 kb/s
Channel(s)                               : 2 channels
Channel layout                           : L R
Sampling rate                            : 48.0 kHz
Frame rate                               : 31.250 FPS (1536 SPF)
Bit depth                                : 16 bits
Compression mode                         : Lossy
Stream size                              : 173 MiB (1%)
Title                                    : [Commentary] , 2 ch, 192 Кбт/с
Language                                 : English
Service kind                             : Complete Main
Default                                  : No
Forced                                   : No

Text
ID                                       : 7
Format                                   : UTF-8
Codec ID                                 : S_TEXT/UTF8
Codec ID/Info                            : UTF-8 Plain Text
Bit rate                                 : 0 b/s
Count of elements                        : 0
Stream size                              : 0.00 Byte (0%)
Title                                    : Full
Language                                 : English
Default                                  : No
Forced                                   : No

Menu
00:00:00.000                             : en:Chapter 1
00:06:03.529                             : en:Chapter 2
00:12:12.398                             : en:Chapter 3
00:20:29.770                             : en:Chapter 4
00:25:19.726                             : en:Chapter 5
00:31:01.234                             : en:Chapter 6
00:35:37.135                             : en:Chapter 7
00:40:02.316                             : en:Chapter 8
00:45:39.153                             : en:Chapter 9
00:51:08.482                             : en:Chapter 10
00:55:26.197                             : en:Chapter 11
01:03:49.951                             : en:Chapter 12
01:13:51.760                             : en:Chapter 13
01:18:54.354                             : en:Chapter 14
01:27:54.143                             : en:Chapter 15
01:32:36.467                             : en:Chapter 16
01:37:53.284                             : en:Chapter 17
01:46:51.696                             : en:Chapter 18
01:52:23.528                             : en:Chapter 19
01:57:30.668                             : en:Chapter 20

Скріншоти






Подяка пану Sando7 за запис доріжки №2


Джерело:
Особиста оцінка: 8 - мені сподобалося






Золотий реліз (завантажене не впливає на рейтинг)
 Трекер:    Зареєстрований   

Завантажити / скачати фільм українською



відео для новачків



 Зареєстрований:   2020-04-20 20:10
 Розмір:   32.02 GB 
 Оцінка фільму:   9.7/10 (Голосів: 7)
   
Інші релізи
   Гостя / The Host (2013) 1080p 2xUkr/Eng | Sub Eng staf777  3 / 0   10.1 GB   2019-02-16 14:08 
   Гостя / The Host (2013) AVC 2хUkr/Eng | Sub Eng AngryBirdsUA  4 / 0   2.3 GB   2019-01-08 16:42 
   Гостя / The Host (2013) 720р Ukr/Eng kino.  2 / 0   4.31 GB   2014-12-11 17:24 
   Гостя / The Host (2013) Ukr/Eng Gelios  5 / 0   2.18 GB   2014-12-10 15:20 
Anonymous 







2020-08-13 12:06  
Гарний фільм.
Ваш часовий пояс: GMT + 2 Години

Нова тема   Відповісти