Стволи Акімбо / Guns Akimbo (2019) Remux 1080p 2xUkr/Eng | Sub Eng

Нові коментарі

Нова тема   Відповісти
Автор Повідомлення
Anonymous 







2020-04-20 18:36  
Стволи Акімбо / Guns Akimbo (2019) Remux 1080p 2xUkr/Eng | Sub Eng


«Найсмертельніша гра у світі щойно знайшла собі нового гравця»



Жанр: бойовик, комедія
Країна: Велика Британія, Німеччина, Нова Зеландія



Кінокомпанія: Altitude Film Entertainment, Four Knights Film, Hyperion Media Group
Режисер: Джейсон Лі Хауден
Актори: Деніел Редкліфф, Самара Вівінг, Різ ДербіНед Деннехі, Грант Боулер, Сет Сьостранд

Сюжет:
Нічим не примітний розробник відеоігор Майлз змушений боротися за своє життя на потіху кровожерливої інтернет-публіки. Довгий час йому вдається уникати сутичок з іншими «гладіаторами», поки організатори не викрадають його дівчину. Тепер Майлз повинен перебороти свої страхи і вийти проти Нікс — безжальної чемпіонки ігор.


Тривалість: 01:37:49
Якість: Blu-Ray Remux 1080p

Відео:
кодек:
розмір кадру: 1920 x 1080
бітрейт: 34800 кб/с

Аудіо # 1:
мова: українська
переклад: професійний дубльований
кодек: 2.0
бітрейт: 192 кб/с

Аудіо # 2:
мова: українська
переклад: одноголосий закадровий | Burton Jey
кодек: 5.1
бітрейт: 448 кб/с
застереження: Увага! Озвучення містить ненормативну лексику!

Аудіо # 3:
мова: англійська
переклад: оригінал
кодек: 5.1
бітрейт: 640 кб/с

Аудіо # :
мова: англійська
переклад: оригінал
кодек: -HD Master 5.1
бітрейт: 4066 кб/с

Субтитри: (forced)
мова: українська
тип: програмні (м'які)
формат: *.srt

Субтитри: (SDH)
мова: англійська
тип: програмні (м'які)
формат: *.srt
Info
Код:

General
Complete name                            : Guns Akimbo (2019) Remux 1080p [2xUkr_Eng] [ViDeO_Hurtom].
Format                                   :
Format version                           : Version 4
File size                                : 27.4 GiB
Duration                                 : 1 h 37 min
Overall bit rate mode                    : Variable
Overall bit rate                         : 40.2 Mb/s
Movie name                               : Стволи Акімбо / Guns Akimbo (2019)
Encoded date                             : UTC 2020-04-20 14:13:40
Writing application                      : v30.1.0 ('Forever And More') 64-bit
Writing library                          : libebml v1.3.6 + v1.4.9
Cover                                    : Yes
Attachments                              : cover.jpg

Video
ID                                       : 1
Format                                   : AVC
Format/Info                              : Advanced Video Codec
Format profile                           : [email protected]
Format settings                          : CABAC / 4 Ref Frames
Format settings, CABAC                   : Yes
Format settings, RefFrames               : 4 frames
Codec ID                                 : V_MPEG4/ISO/AVC
Duration                                 : 1 h 37 min
Bit rate mode                            : Variable
Bit rate                                 : 34.8 Mb/s
Maximum bit rate                         : 37.0 Mb/s
Width                                    : 1 920 pixels
Height                                   : 1 080 pixels
Display aspect ratio                     : 16:9
Frame rate mode                          : Constant
Frame rate                               : 23.976 (24000/1001) FPS
Color space                              : YUV
Chroma subsampling                       : 4:2:0
Bit depth                                : 8 bits
Scan type                                : Progressive
Bits/(Pixel*Frame)                       : 0.700
Stream size                              : 23.8 GiB (87%)
Language                                 : English
Default                                  : Yes
Forced                                   : No

Audio #1
ID                                       : 2
Format                                   : AC-3
Format/Info                              : Audio Coding 3
Commercial name                          : Dolby Digital
Codec ID                                 : A_AC3
Duration                                 : 1 h 37 min
Bit rate mode                            : Constant
Bit rate                                 : 192 kb/s
Channel(s)                               : 2 channels
Channel layout                           : L R
Sampling rate                            : 48.0 kHz
Frame rate                               : 31.250 FPS (1536 SPF)
Bit depth                                : 16 bits
Compression mode                         : Lossy
Stream size                              : 134 MiB (0%)
Title                                    : 2.0 | 192
Language                                 : Ukrainian
Service kind                             : Complete Main
Default                                  : Yes
Forced                                   : No

Audio #2
ID                                       : 3
Format                                   : AC-3
Format/Info                              : Audio Coding 3
Commercial name                          : Dolby Digital
Codec ID                                 : A_AC3
Duration                                 : 1 h 37 min
Bit rate mode                            : Constant
Bit rate                                 : 448 kb/s
Channel(s)                               : 6 channels
Channel layout                           : L R C LFE Ls Rs
Sampling rate                            : 48.0 kHz
Frame rate                               : 31.250 FPS (1536 SPF)
Bit depth                                : 16 bits
Compression mode                         : Lossy
Stream size                              : 313 MiB (1%)
Title                                    : 5.1 | 448
Language                                 : Ukrainian
Service kind                             : Complete Main
Default                                  : No
Forced                                   : No

Audio #3
ID                                       : 4
Format                                   : AC-3
Format/Info                              : Audio Coding 3
Commercial name                          : Dolby Digital
Codec ID                                 : A_AC3
Duration                                 : 1 h 37 min
Bit rate mode                            : Constant
Bit rate                                 : 640 kb/s
Channel(s)                               : 6 channels
Channel layout                           : L R C LFE Ls Rs
Sampling rate                            : 48.0 kHz
Frame rate                               : 31.250 FPS (1536 SPF)
Bit depth                                : 16 bits
Compression mode                         : Lossy
Stream size                              : 448 MiB (2%)
Title                                    : 5.1 | 640
Language                                 : English
Service kind                             : Complete Main
Default                                  : No
Forced                                   : No

Audio #4
ID                                       : 5
Format                                   : XLL
Format/Info                              : Digital Theater Systems
Commercial name                          : -HD Master Audio
Codec ID                                 : A_DTS
Duration                                 : 1 h 37 min
Bit rate mode                            : Variable
Bit rate                                 : 4 066 kb/s
Channel(s)                               : 6 channels
Channel layout                           : C L R Ls Rs LFE
Sampling rate                            : 48.0 kHz
Frame rate                               : 93.750 FPS (512 SPF)
Bit depth                                : 24 bits
Compression mode                         : Lossless
Stream size                              : 2.78 GiB (10%)
Title                                    : -HD MA 5.1 | 4066
Language                                 : English
Default                                  : No
Forced                                   : No

Text #1
ID                                       : 6
Format                                   : UTF-8
Codec ID                                 : S_TEXT/UTF8
Codec ID/Info                            : UTF-8 Plain Text
Duration                                 : 1 h 27 min
Bit rate                                 : 4 b/s
Count of elements                        : 38
Stream size                              : 2.87 KiB (0%)
Title                                    : Forced
Language                                 : Ukrainian
Default                                  : Yes
Forced                                   : No

Text #2
ID                                       : 7
Format                                   : UTF-8
Codec ID                                 : S_TEXT/UTF8
Codec ID/Info                            : UTF-8 Plain Text
Duration                                 : 1 h 29 min
Bit rate                                 : 72 b/s
Count of elements                        : 1639
Stream size                              : 47.6 KiB (0%)
Title                                    : SDH
Language                                 : English
Default                                  : No
Forced                                   : No

Menu
00:00:00.000                             : en:Chapter 01
00:04:14.588                             : en:Chapter 02
00:12:10.438                             : en:Chapter 03
00:18:55.384                             : en:Chapter 04
00:23:15.686                             : en:Chapter 05
00:30:08.598                             : en:Chapter 06
00:34:46.418                             : en:Chapter 07
00:42:15.491                             : en:Chapter 08
00:47:14.123                             : en:Chapter 09
00:52:14.673                             : en:Chapter 10
00:55:57.145                             : en:Chapter 11
00:58:56.783                             : en:Chapter 12
01:04:05.508                             : en:Chapter 13
01:10:56.752                             : en:Chapter 14
01:17:35.192                             : en:Chapter 15
01:29:03.129                             : en:Chapter 16
Скріншоти


Джерело:
Особиста оцінка: 7 - моїй подрузі не сподобалося


Авторський реліз (завантажувати можна без реєстрації)
 Трекер:    Зареєстрований   

Завантажити / скачати фільм українською



відео для новачків



 Зареєстрований:   2020-04-20 18:36
 Розмір:   27.44 GB 
 Оцінка фільму:   8/10 (Голосів: 11)
   
Інші релізи
   Стволи Акімбо / Guns Akimbo (2019) AVC 2xUkr/Eng | Sub Eng 11FrYkT  19 / 0   2.56 GB   2020-04-21 20:49 
   Стволи Акімбо / Guns Akimbo (2019) Ukr/Eng antik_2008  31 / 0   1.86 GB   2020-04-20 00:14 
   Стволи Акімбо / Guns Akimbo (2019) 1080p Ukr/Eng | Sub Eng antik_2008  25 / 0   9.84 GB   2020-04-19 22:37 
   Стволи Акімбо / Guns Akimbo (2019) 720p 2xUkr/Eng | Sub Eng antik_2008  9 / 0   5.36 GB   2020-04-19 22:13 
   Стволи Акімбо / Guns Akimbo (2019) 1080p Ukr/Eng | Sub Eng BurtonJey  33 / 0   6.39 GB   2020-03-18 23:56 
   Стволи Акімбо / Guns Akimbo (2019) Ukr/Eng BurtonJey  34 / 0   2.21 GB   2020-03-18 18:54 
LIDERIS 
Новенький


З нами з: 21.02.11
Востаннє: 30.09.20
Повідомлень: 1

2020-04-20 19:26  
Один з небагатьох класних фільмів за останній період. Лайк однозначно!
Svs12345 
Новенький


З нами з: 25.12.19
Востаннє: 30.09.20
Повідомлень: 2

2020-04-22 21:52  
Жорстокий треш... 7/10
Ваш часовий пояс: GMT + 2 Години

Нова тема   Відповісти