Флірт зі звіром / Someone like you (2001) 1080p Ukr/Eng | Sub Ukr/Eng

Нові коментарі

Нова тема   Відповісти
Автор Повідомлення
Anonymous 







2020-04-20 16:22  
Флірт зі звіром / Someone like you (2001) 1080p Ukr/Eng | Sub Ukr/Eng

Флірт зі звіром / Someone like you (2001) 1080p Ukr/Eng | Sub Ukr/Eng


Жанр: комедія, мелодрама
Країна: США



Кінокомпанія: Fox 2000 Pictures
Режисер: Тоні Голдвін / Tony Goldwyn
Актори: Ешлі Джад, Грег Кіннер, Х'ю Джекман, Маріса Томей, Еллен Баркін, Катрін Дент, Пітер Фрідман, Лаура Ріган, С'ю Джин Сонг, Кейт Реддін

Сюжет:
Джейн - молода і скажено сексапільна дівчина. Вона живе в Нью-Йорку. Працює в популярному телешоу і сповнена рішучості домогтися успіху як на роботі, так і в особистому житті. За нею доглядає Рей, новий виконавчий продюсер. Їх роман розвивається швидко і красиво.

Незабаром закохана парочка починає підшукувати гніздечко для спільного проживання. Однак несподівано і без пояснень Рей припиняє цей бурний роман, і Джейн залишається одна - покинута і нещасна. Розмірковуючи про те, що трапилося. Джейн приходить до висновку. Що всі мужики - тварини. Усвідомивши свою перевагу, вона вирішує написати статтю в жіночий журнал, де порівнює чоловіків з тваринами під час шлюбного періоду.

В якості піддослідного кролика вона вибирає свого колегу Едді - справжнього бабія і типового зразка чоловіка-самця. Але здається вона переоцінила свої сили, і Едді доводить їй, що жінки, хоча вони й більш витончені, не сильно відрізняються від чоловіків.


Тривалість: 01:37:15
Якість: 1080p
Відео:
кодек:
розмір кадру: 1920х1040
бітрейт: 12.3 Mб/с

Аудіо # 1:
мова: українська
переклад: двоголосий закадровий
кодек: 2.0 (з 5.1)
бітрейт: 192 кб/с

Аудіо # 2:
мова: англійська
переклад: оригінал
кодек: 5.1
бітрейт: 640 кб/с

Субтитри:
мова: українська
тип: програмні (м'які)
формат: *.srt

Субтитри:
мова: українська
тип: програмні (м'які)
формат: *.srt
Info
General
Unique ID : 228437786747430335926903137604706528763 (0xABDB8473D81D552F9176CF0B84EC6DFB)
Complete name : E:\Toloka\2020\Someone like you (2001) 1080p.
Format :
Format version : Version 4
File size : 8.92 GiB
Duration : 1 h 37 min
Overall bit rate mode : Variable
Overall bit rate : 13.1 Mb/s
Movie name : Someone like you (2001) 1080p
Encoded date : UTC 2020-04-20 13:12:40
Writing application : v6.1.0 ('Old Devil') built on Mar 4 2013 09:10:42
Writing library : libebml v1.3.0 + v1.4.0

Video
ID : 1
Format : AVC
Format/Info : Advanced Video Codec
Format profile : [email protected]
Format settings : CABAC / 4 Ref Frames
Format settings, CABAC : Yes
Format settings, RefFrames : 4 frames
Codec ID : V_MPEG4/ISO/AVC
Duration : 1 h 37 min
Bit rate mode : Variable
Bit rate : 12.0 Mb/s
Maximum bit rate : 15.0 Mb/s
Width : 1 920 pixels
Height : 1 040 pixels
Display aspect ratio : 1.85:1
Frame rate mode : Constant
Frame rate : 23.976 (24000/1001) FPS
Color space : YUV
Chroma subsampling : 4:2:0
Bit depth : 8 bits
Scan type : Progressive
Bits/(Pixel*Frame) : 0.251
Stream size : 8.18 GiB (92%)
Writing library : core 148 r2623 d5b2374
Encoding settings : cabac=1 / ref=4 / deblock=1:-1:-1 / analyse=0x3:0x133 / me=umh / subme=9 / psy=1 / psy_rd=1.00:0.15 / mixed_ref=1 / me_range=24 / chroma_me=1 / trellis=2 / 8x8dct=1 / cqm=0 / deadzone=21,11 / fast_pskip=1 / chroma_qp_offset=-3 / threads=32 / lookahead_threads=5 / sliced_threads=0 / nr=150 / decimate=1 / interlaced=0 / bluray_compat=0 / constrained_intra=0 / bframes=8 / b_pyramid=2 / b_adapt=2 / b_bias=0 / direct=3 / weightb=1 / open_gop=0 / weightp=2 / keyint=120 / keyint_min=61 / scenecut=0 / intra_refresh=0 / rc_lookahead=120 / rc=crf / mbtree=1 / crf=18.0 / qcomp=0.60 / qpmin=0 / qpmax=69 / qpstep=4 / vbv_maxrate=15000 / vbv_bufsize=31250 / crf_max=0.0 / nal_hrd=vbr / filler=0 / ip_ratio=1.40 / aq=3:1.00
Language : English
Default : Yes
Forced : No
Color range : Limited
Color primaries : BT.709
Transfer characteristics : BT.709
Matrix coefficients : BT.709

Audio #1
ID : 2
Format : AC-3
Format/Info : Audio Coding 3
Commercial name : Dolby Digital
Codec ID : A_AC3
Duration : 1 h 37 min
Bit rate mode : Constant
Bit rate : 192 kb/s
Channel(s) : 2 channels
Channel layout : L R
Sampling rate : 48.0 kHz
Frame rate : 31.250 FPS (1536 SPF)
Bit depth : 16 bits
Compression mode : Lossy
Stream size : 134 MiB (1%)
Title : UKR (Новий)
Language : Ukrainian
Service kind : Complete Main
Default : Yes
Forced : Yes

Audio #2
ID : 3
Format : E-AC-3
Format/Info : Enhanced AC-3
Commercial name : Dolby Digital Plus
Codec ID : A_EAC3
Duration : 1 h 37 min
Bit rate mode : Constant
Bit rate : 640 kb/s
Channel(s) : 6 channels
Channel layout : L R C LFE Ls Rs
Sampling rate : 48.0 kHz
Frame rate : 31.250 FPS (1536 SPF)
Compression mode : Lossy
Stream size : 445 MiB (5%)
Title : ENG
Language : English
Service kind : Complete Main
Default : No
Forced : No

Text #1
ID : 4
Format : UTF-8
Codec ID : S_TEXT/UTF8
Codec ID/Info : UTF-8 Plain Text
Title : UKR (DVD)
Language : Ukrainian
Default : Yes
Forced : No

Text #2
ID : 5
Format : UTF-8
Codec ID : S_TEXT/UTF8
Codec ID/Info : UTF-8 Plain Text
Title : ENG full
Language : English
Default : No
Forced : No
Скріншоти








За доріжку подяка п.: urij546724, RosXXX
За субтитри подяка п. TheMarlboro
Особиста подяка пану denixx за надану матеріальну допомогу на підтримку цього і майбутніх релізів.
Джерело:


Срібний реліз (на рейтинг впливає 50% завантаженого)
 Трекер:    Зареєстрований   

Завантажити / скачати фільм українською



відео для новачків



 Зареєстрований:   2020-04-20 16:22
 Розмір:   8.92 GB 
 Оцінка фільму:   9.5/10 (Голосів: 4)
   
Інші релізи
Ваш часовий пояс: GMT + 2 Години

Нова тема   Відповісти