Дора і друзі. Пригоди в місті / Dora and Friends: Into the City! (Сезон 1) (2014) 1080p Ukr/Eng

Нові коментарі

Нова тема   Відповісти
Автор Повідомлення
sergiyko.5 
Забанено
Забанено


З нами з: 25.02.16
Востаннє: 29.10.20
Повідомлень: 3648

2020-04-20 14:43  
Всі одноіменні релізи на трекері

Дора і друзі. Пригоди в місті / Dora and Friends: Into the City! (Сезон 1) (2014) 1080p Ukr/Eng


Дора і друзі. Пригоди в місті / Dora and Friends: Into the City! (Сезон 1) (2014) 1080p Ukr/Eng

Жанр: дитячий, музичний, пригодницький
Країна: США
Кінокомпанія: Nickelodeon Studios
Режисер: Джордж Чалтас, Аллан Якобсен
Актори: Фатіма Пташек, Едуардо Карденас Арестізабал, Ешлі Ернест та інші

Сюжет:
Всі ви добре знаєте нашу допитливу Дору, яка не раз задавала вам захоплюючі питання і допомагала дізнатися стільки цікавого про цей світ. Тепер ця симпатична дівчинка переїхала в місто Плайя-Верде, де у неї з'явилася сила-силенна нових друзів. Кейт, Алана, Емма і Пабло ходять з нею в одну школу, а у вільний час їх чекають справжні пригоди. У Дори з'явився особливий магічний браслет і спеціальний телефон, на якому є карта їх міста. Вона потрібна, щоб виконувати важливі завдання, відмічені на карті. Кожен раз друзі допомагають комусь вирішити проблему або просто роблять добрі справи, дізнаючись при цьому багато нового.




Тривалість: 1 серія: 00:22:56 (цілком серій: 20 з 20)
Якість:

Відео: кодек: розмір кадру: 1920 х 1080 бітрейт: 5120 кб/с
Аудіо: мова: українська переклад: професійний дубльований кодек: 2.0 бітрейт: 192 кб/с
Озвучення:
Аудіо: мова: англійська переклад: оригінал кодек: 2.0 бітрейт: 256 кб/с
Перелік серій
01 День допомоги собакам
02 Порятунок піратського корабля
03 Танці
04 Чарівний перстень
05 Королівський бал
06 Дивосвіт
07 Дора рятує операленд
08 Театр ляльок
09 Таємниця чарівних коней
10 Пошуки моно
11 Перегони
12 Надзвичайні пригоди русалки
13-14 Порятунок принцеси собак
15 Врятуймо музику
16 Туристичний похід
17 Подорож до країни годинників
18 Хелловін
19-20 Драконка у школі
Про файл
General
Unique ID : 188165203725289520051715393436885254105 (0x8D8F4CCF11BA3AED2C2CA0F3771CFFD9)
Complete name : D:\Documents\Torrents\Rizne\Dora and Friends Into the City S01 1080p \S01E01.Doggie Day.1080p..
Format :
Format version : Version 4
File size : 912 MiB
Duration : 22 min 55 s
Overall bit rate : 5 561 kb/s
Movie name : Dora and Friends Into the City S01 1080p by sergiyko
Encoded date : UTC 2020-04-20 11:16:53
Writing application : v44.0.0 ('Domino') 64-bit
Writing library : libebml v1.3.10 + v1.5.2

Video
ID : 1
Format : AVC
Format/Info : Advanced Video Codec
Format profile : [email protected]
Format settings : CABAC / 4 Ref Frames
Format settings, CABAC : Yes
Format settings, Reference : 4 frames
Codec ID : V_MPEG4/ISO/AVC
Duration : 22 min 55 s
Bit rate : 5 120 kb/s
Width : 1 920 pixels
Height : 1 080 pixels
Display aspect ratio : 16:9
Frame rate mode : Constant
Frame rate : 25.000 FPS
Color space : YUV
Chroma subsampling : 4:2:0
Bit depth : 8 bits
Scan type : Progressive
Bits/(Pixel*Frame) : 0.099
Stream size : 838 MiB (92%)
Title : S01E01.Doggie Day
Writing library : core 148
Encoding settings : cabac=1 / ref=3 / deblock=1:0:0 / analyse=0x3:0x113 / me=hex / subme=7 / psy=1 / psy_rd=1.00:0.00 / mixed_ref=1 / me_range=16 / chroma_me=1 / trellis=1 / 8x8dct=1 / cqm=0 / deadzone=21,11 / fast_pskip=1 / chroma_qp_offset=-2 / threads=34 / lookahead_threads=5 / sliced_threads=0 / nr=0 / decimate=1 / interlaced=0 / bluray_compat=0 / constrained_intra=0 / bframes=6 / b_pyramid=2 / b_adapt=1 / b_bias=0 / direct=1 / weightb=1 / open_gop=0 / weightp=2 / keyint=50 / keyint_min=26 / scenecut=0 / intra_refresh=0 / rc_lookahead=40 / rc=2pass / mbtree=1 / bitrate=5120 / ratetol=1.0 / qcomp=0.60 / qpmin=0 / qpmax=69 / qpstep=4 / cplxblur=20.0 / qblur=0.5 / vbv_maxrate=7680 / vbv_bufsize=20480 / nal_hrd=none / filler=0 / ip_ratio=1.40 / aq=1:1.00
Language : English
Default : Yes
Forced : No

Audio #1
ID : 2
Format : AC-3
Format/Info : Audio Coding 3
Commercial name : Dolby Digital
Codec ID : A_AC3
Duration : 22 min 55 s
Bit rate mode : Constant
Bit rate : 192 kb/s
Channel(s) : 2 channels
Channel layout : L R
Sampling rate : 48.0 kHz
Frame rate : 31.250 FPS (1536 SPF)
Compression mode : Lossy
Delay relative to video : -43 ms
Stream size : 31.5 MiB (3%)
Title : DUB DualMono
Language : Ukrainian
Service kind : Complete Main
Default : Yes
Forced : Yes

Audio #2
ID : 3
Format : LC
Format/Info : Advanced Audio Codec Low Complexity
Codec ID : A_AAC-2
Duration : 22 min 55 s
Bit rate : 256 kb/s
Channel(s) : 2 channels
Channel layout : L R
Sampling rate : 48.0 kHz
Frame rate : 46.875 FPS (1024 SPF)
Compression mode : Lossy
Delay relative to video : -43 ms
Stream size : 42.0 MiB (5%)
Title : Original
Language : English
Default : No
Forced : No
Скріншоти:


Запис: xslim
Зведення: sergiyko


Бронзовий реліз (на рейтинг впливає 75% завантаженого)
 Трекер:    Зареєстрований   

Завантажити / скачати мультфільм українською



відео для новачків



 Зареєстрований:   2020-04-20 14:43
 Розмір:   17.86 GB 
 Оцінка мультсеріалу:   10/10 (Голосів: 3)
   
Ваш часовий пояс: GMT + 2 Години

Нова тема   Відповісти