Чорний куклукскланівець / BlacKkKlansman (2018) 1080p Eng | Sub Ukr/Eng

Нові коментарі

Нова тема   Відповісти
Автор Повідомлення
Anonymous 







2020-04-20 03:25  
Чорний куклукскланівець / BlacKkKlansman (2018) 1080p Eng | Sub Ukr/Eng


Оригінальний постер:

Чорний куклукскланівець / BlacKkKlansman (2018) 1080p Eng | Sub Ukr/Eng




Жанр: біографічний, кримінальний, драма, комедія
Країна: США


Кінокомпанія: Focus Features, Legendary Entertainment (as Legendary Pictures), Perfect World Pictures (in association with), QC Entertainment, Blumhouse Productions, Monkeypaw Productions, 40 Acres & A Mule Filmworks
Режисер: Спайк Лі / Spike Lee
Актори: Джон Девід Вашинґтон / John David Washington, Адам Драйвер / Adam Driver, Лора Геррієр / Laura Harrier, Тофер Ґрейс / Topher Grace, Яспер Пеконен / Jasper Pääkkönen, Раян Еґґолд / Ryan Eggold, Роберт Джон Берк / Robert John Burke, Гаррі Белафонте / Harry Belafonte, Алек Болдвін / Alec Baldwin та інші

Сюжет:
Дія відбувається у 1970-х. Рон Столворт (Джон Девід Вашинґтон) – перший афроамериканський детектив на службі поліційного відділку Колорадо-Спрінгс. Захоплений ідеєю прославитися, Столворт безстрашно береться за небезпечне завдання – проникнути у ку-клукс-клан під прикриттям та викрити цю організацію. Молодий детектив невдовзі залучається підтримкою досвідченого колеги Філліпа Циммермана (Адам Драйвер), щоб удвох працювати над найважливішим розслідуванням їхньої кар'єри. Їхня мета – припинити діяльність праворадикальної групи, яка саме намагається підчистити свою ненависницьку риторику, аби привернути симпатії широкої громадськості…

Тривалість: 02:14:49
Якість: 1080p

Відео:
Кодек:
Розмір кадру: 1920x804
Бітрейт: 12.2 Мбіт/с

Аудіо:
Мова: англійська
Переклад: Оригінал
Кодек: 5.1
Бітрейт: 1509 Кбіт/с

Субтитри #1:
Мова: українська | повні
Переклад: Mykhailyna Karpinska [Netflix]

Тип: програмні (м'які)
Формат: *.srt
Українські субтитри також можна завантажити окремо з OpenSubtitles або Subscene

Субтитри #2:
Мова: англійська | повні, SDH
Тип: програмні (м'які)
Формат: *.srt

Info


General
Unique ID : 129594387016873979808938554068896373166 (0x617EF8974253F499EA4F8439F190D9AE)
Format :
Format version : Version 4
File size : 12.9 GiB
Duration : 2 h 14 min
Overall bit rate : 13.7 Mb/s
Movie name : BlacKkKlansman (2018) 1080p [Eng][SubUkrEng] [Hurtom]
Encoded date : UTC 2020-04-19 17:23:05
Writing application : v45.0.0 ('Heaven in Pennies') 64-bit
Writing library : libebml v1.3.10 + v1.5.2
Attachments : poster ukr.jpg / poster eng.jpg

Video
ID : 1
Format : AVC
Format/Info : Advanced Video Codec
Format profile : [email protected]
Format settings : CABAC / 4 Ref Frames
Format settings, CABAC : Yes
Format settings, Reference fra : 4 frames
Codec ID : V_MPEG4/ISO/AVC
Duration : 2 h 14 min
Bit rate : 12.2 Mb/s
Width : 1 920 pixels
Height : 804 pixels
Display aspect ratio : 2.40:1
Frame rate mode : Constant
Frame rate : 23.976 (24000/1001) FPS
Color space : YUV
Chroma subsampling : 4:2:0
Bit depth : 8 bits
Scan type : Progressive
Bits/(Pixel*Frame) : 0.329
Stream size : 11.5 GiB (89%)
Title : BlacKkKlansman (2018) 1920x804p
Writing library : core 155 r2867+74 66b5600 t_mod_Custom_2 [[email protected] X86_64]
Encoding settings : cabac=1 / ref=4 / deblock=1:-3:-3 / analyse=0x3:0x113 / me=umh / subme=10 / psy=1 / fade_compensate=0.00 / psy_rd=0.90:0.10 / mixed_ref=1 / me_range=48 / chroma_me=1 / trellis=2 / 8x8dct=1 / cqm=0 / deadzone=21,11 / fast_pskip=0 / chroma_qp_offset=-2 / threads=12 / lookahead_threads=2 / sliced_threads=0 / nr=0 / decimate=1 / interlaced=0 / bluray_compat=0 / constrained_intra=0 / fgo=0 / bframes=8 / b_pyramid=2 / b_adapt=2 / b_bias=0 / direct=3 / weightb=1 / open_gop=0 / weightp=2 / keyint=250 / keyint_min=23 / scenecut=40 / intra_refresh=0 / rc_lookahead=40 / rc=crf / mbtree=0 / crf=21.0000 / qcomp=0.70 / qpmin=0:0:0 / qpmax=69:69:69 / qpstep=4 / vbv_maxrate=35000 / vbv_bufsize=35000 / crf_max=0.0 / nal_hrd=none / filler=0 / ip_ratio=1.40 / pb_ratio=1.30 / aq=3:0.90 / aq-sensitivity=10.00 / aq-factor=1.00:1.00:1.00 / aq2=0 / aq3=2:[0.50:0.50]:[0.50:0.50]:[0.50:0.50]:[0.50:0.50] / aq3-sensitivity=10.00 / aq3-factor=[1.00:1.00]:[1.00:1.00]:[1.00:1.00] / aq3-boundary=192:64:24
Language : English
Default : Yes
Forced : No
Color range : Limited
Matrix coefficients : BT.709

Audio
ID : 2
Format :
Format/Info : Digital Theater Systems
Codec ID : A_DTS
Duration : 2 h 14 min
Bit rate mode : Constant
Bit rate : 1 509 kb/s
Channel(s) : 6 channels
Channel layout : C L R Ls Rs LFE
Sampling rate : 48.0 kHz
Frame rate : 93.750 FPS (512 SPF)
Bit depth : 24 bits
Compression mode : Lossy
Stream size : 1.42 GiB (11%)
Title : [Оригінал] 5.1 @ 1509 Кбіт/с
Language : English
Default : Yes
Forced : No

Text #1
ID : 3
Format : UTF-8
Codec ID : S_TEXT/UTF8
Codec ID/Info : UTF-8 Plain Text
Duration : 2 h 12 min
Bit rate : 141 b/s
Count of elements : 2440
Stream size : 138 KiB (0%)
Title : Повні [Netflix]
Language : Ukrainian
Default : Yes
Forced : No

Text #2
ID : 4
Format : UTF-8
Codec ID : S_TEXT/UTF8
Codec ID/Info : UTF-8 Plain Text
Duration : 2 h 12 min
Bit rate : 85 b/s
Count of elements : 2810
Stream size : 83.2 KiB (0%)
Title : Повні
Language : English
Default : No
Forced : No

Text #3
ID : 5
Format : UTF-8
Codec ID : S_TEXT/UTF8
Codec ID/Info : UTF-8 Plain Text
Duration : 2 h 8 min
Bit rate : 89 b/s
Count of elements : 2636
Stream size : 84.6 KiB (0%)
Title : SDH
Language : English
Default : No
Forced : No

Menu
00:00:00.000 : en:Chapter 1
00:04:10.250 : en:Chapter 2
00:13:54.876 : en:Chapter 3
00:23:16.604 : en:Chapter 4
00:27:56.508 : en:Chapter 5
00:36:10.668 : en:Chapter 6
00:43:21.557 : en:Chapter 7
00:48:30.616 : en:Chapter 8
00:54:58.629 : en:Chapter 9
00:59:48.543 : en:Chapter 10
01:07:04.771 : en:Chapter 11
01:16:37.802 : en:Chapter 12
01:22:20.394 : en:Chapter 13
01:29:38.123 : en:Chapter 14
01:39:10.653 : en:Chapter 15
01:48:27.042 : en:Chapter 16
01:56:05.584 : en:Chapter 17
02:00:43.945 : en:Chapter 18
02:03:57.430 : en:Chapter 19
02:09:03.569 : en:Chapter 20
Скріншоти








Джерело:


 Трекер:    Зареєстрований   

Завантажити / скачати фільм українською



відео для новачків



 Зареєстрований:   2020-04-20 03:25
 Розмір:   12.89 GB 
 Оцінка фільму:   9.5/10 (Голосів: 2)
   
Інші релізи
Ваш часовий пояс: GMT + 2 Години

Нова тема   Відповісти