Апгрейд / Upgrade (2018) 1080р H.265 Ukr/Eng | Sub Ukr/Eng

Нові коментарі

Нова тема   Відповісти
Автор Повідомлення
Anonymous 







2020-04-20 00:36  
Апгрейд / Upgrade (2018) 1080р H.265 Ukr/Eng | Sub Ukr/Eng

Апгрейд / Upgrade (2018) 1080р H.265 Ukr/Eng | Sub Ukr/Eng


Жанр: екшн, трилер, фантастика, жахи
Країна: США, Австралія
Кінокомпанія: Blumhouse Productions, Goalpost Pictures
Режисер: Лі Воннел
Актори: Лоґан Маршалл-Ґрін, Бетті Ґебріел, Гаррісон Гілбертсон, Річард Коуторн та інші

Сюжет:
У недалекому майбутньому в результаті розбійного нападу Ґрей Трейс стає повністю паралізованим, а його дружину вбивають. Ґрей погоджується стати носієм експериментального чипа з новітнім штучним інтелектом, який не тільки дозволяє йому знову ходили, та наділяє надлюдськими здібностями.

Тривалість: 01:39:54
Якість:

Відео:
кодек: H.265 (HEVC)
розмір кадру: 1920 x 804
бітрейт: 5 843 кб/с
бітова глибина: 10 біт

Увага! Перед завантаженням переконайтесь, що ваш пристрій відтворення (та/або ПЗ) підтримує H.265 (HEVC)

Аудіо # 1:
мова: українська
переклад: двоголосий закадровий | BurtonJey & Artymko
кодек: AC-3 5.1
бітрейт: 448 кб/с

Аудіо # 2:
мова: англійська
переклад: оригінал
кодек: 5.1
бітрейт: 1510 кб/с

Субтитри # 1: (Full by SubAutumn-JoRi, GT, edited by igor911)
мова: українська
тип: програмні (м'які)
формат: *.srt

Субтитри # 2-3: (Full, SDH)
мова: англійська
тип: програмні (м'які)
формат: *.srt


Info
Код:
General
Unique ID                                : 59707385425285183466636541723894205021 (0x2CEB3961D6EB1D680BB22B0DC6D5CA5D)
Complete name                            : Upgrade (2018) 1080p H.265 [UKR_ENG] [Hurtom].
Format                                   :
Format version                           : Version 4
File size                                : 5.45 GiB
Duration                                 : 1 h 39 min
Overall bit rate                         : 7 804 kb/s
Movie name                               : Апгрейд / Стем / Upgrade (2018)
Encoded date                             : UTC 2020-05-09 07:28:25
Writing application                      : v20.0.0 ('I Am The Sun') 64-bit
Writing library                          : libebml v1.3.5 + v1.4.8
Cover                                    : Yes
Attachments                              : Cover.jpg

Video
ID                                       : 1
Format                                   : HEVC
Format/Info                              : High Efficiency Video Coding
Format profile                           : Main [email protected]@High
Codec ID                                 : V_MPEGH/ISO/HEVC
Duration                                 : 1 h 39 min
Bit rate                                 : 5 843 kb/s
Width                                    : 1 920 pixels
Height                                   : 804 pixels
Display aspect ratio                     : 2.40:1
Frame rate mode                          : Constant
Frame rate                               : 23.976 (24000/1001) FPS
Color space                              : YUV
Chroma subsampling                       : 4:2:0
Bit depth                                : 10 bits
Bits/(Pixel*Frame)                       : 0.158
Stream size                              : 4.08 GiB (75%)
Title                                    : Апгрейд / Стем / Upgrade (2018)
Writing library                          : x265 3.1+7-147fb92c5ed5:[Windows][clang 8.0.0][64 bit] 10bit
Encoding settings                        : cpuid=1064959 / frame-threads=9 / wpp / no-pmode / no-pme / no-psnr / no-ssim / log-level=3 / input-csp=1 / input-res=1920x804 / interlace=0 / total-frames=0 / level-idc=41 / high-tier=1 / uhd-bd=0 / ref=5 / allow-non-conformance / no-repeat-headers / annexb / no-aud / no-hrd / info / hash=0 / no-temporal-layers / open-gop / min-keyint=24 / keyint=240 / gop-lookahead=0 / bframes=16 / b-adapt=2 / b-pyramid / bframe-bias=0 / rc-lookahead=40 / lookahead-slices=5 / scenecut=40 / radl=0 / no-splice / no-intra-refresh / ctu=32 / min-cu-size=8 / rect / no-amp / max-tu-size=32 / tu-inter-depth=4 / tu-intra-depth=4 / limit-tu=1 / rdoq-level=2 / dynamic-rd=0.00 / no-ssim-rd / signhide / no-tskip / nr-intra=0 / nr-inter=0 / no-constrained-intra / no-strong-intra-smoothing / max-merge=5 / limit-refs=1 / no-limit-modes / me=3 / subme=7 / merange=57 / temporal-mvp / no-hme / weightp / no-weightb / no-analyze-src-pics / deblock=-3:-3 / no-sao / no-sao-non-deblock / rd=4 / early-skip / no-rskip / no-fast-intra / no-tskip-fast / no-cu-lossless / b-intra / no-splitrd-skip / rdpenalty=0 / psy-rd=2.00 / psy-rdoq=1.00 / no-rd-refine / no-lossless / cbqpoffs=0 / crqpoffs=0 / rc=crf / crf=21.0 / qcomp=0.70 / qpstep=4 / stats-write=0 / stats-read=0 / vbv-maxrate=50000 / vbv-bufsize=50000 / vbv-init=0.9 / crf-max=0.0 / crf-min=0.0 / ipratio=1.40 / pbratio=1.30 / aq-mode=1 / aq-strength=1.00 / no-cutree / zone-count=0 / no-strict-cbr / qg-size=32 / no-rc-grain / qpmax=69 / qpmin=0 / no-const-vbv / sar=1 / overscan=0 / videoformat=5 / range=0 / colorprim=2 / transfer=2 / colormatrix=2 / chromaloc=0 / display-window=0cll=0,0 / min-luma=0 / max-luma=1023 / log2-max-poc-lsb=8 / vui-timing-info / vui-hrd-info / slices=1 / no-opt-qp-pps / no-opt-ref-list-length-pps / no-multi-pass-opt-rps / scenecut-bias=0.05 / no-opt-cu-delta-qp / no-aq-motion / no-hdr / no-hdr-opt / no-dhdr10-opt / no-idr-recovery-sei / analysis-reuse-level=5 / scale-factor=0 / refine-intra=0 / refine-inter=0 / refine-mv=0 / refine-ctu-distortion=0 / no-limit-sao / ctu-info=0 / no-lowpass-dct / refine-analysis-type=71500832 / copy-pic=1 / max-ausize-factor=1.0 / no-dynamic-refine / no-single-sei / no-hevc-aq / no-svt / no-field / qp-adaptation-range=1.00
Default                                  : Yes
Forced                                   : No
Color range                              : Limited

Audio #1
ID                                       : 2
Format                                   : AC-3
Format/Info                              : Audio Coding 3
Commercial name                          : Dolby Digital
Codec ID                                 : A_AC3
Duration                                 : 1 h 39 min
Bit rate mode                            : Constant
Bit rate                                 : 448 kb/s
Channel(s)                               : 6 channels
Channel layout                           : L R C LFE Ls Rs
Sampling rate                            : 48.0 kHz
Frame rate                               : 31.250 FPS (1536 SPF)
Compression mode                         : Lossy
Stream size                              : 320 MiB (6%)
Title                                    : / 5.1 Ch / 448 kbps / ДЗ / BurtonJey & Artymko
Language                                 : Ukrainian
Service kind                             : Complete Main
Default                                  : Yes
Forced                                   : Yes

Audio #2
ID                                       : 3
Format                                   :
Format/Info                              : Digital Theater Systems
Codec ID                                 : A_DTS
Duration                                 : 1 h 39 min
Bit rate mode                            : Constant
Bit rate                                 : 1 509 kb/s
Channel(s)                               : 6 channels
Channel layout                           : C L R Ls Rs LFE
Sampling rate                            : 48.0 kHz
Frame rate                               : 93.750 FPS (512 SPF)
Bit depth                                : 24 bits
Compression mode                         : Lossy
Stream size                              : 1.05 GiB (19%)
Title                                    : / 5.1 Ch / 1509 kbps / Original
Language                                 : English
Default                                  : No
Forced                                   : No

Text #1
ID                                       : 4
Format                                   : UTF-8
Codec ID                                 : S_TEXT/UTF8
Codec ID/Info                            : UTF-8 Plain Text
Duration                                 : 1 h 33 min
Bit rate                                 : 81 b/s
Count of elements                        : 1288
Stream size                              : 55.9 KiB (0%)
Title                                    : Full by SubAutumn-JoRi, GT, edited by igor911
Language                                 : Ukrainian
Default                                  : Yes
Forced                                   : Yes

Text #2
ID                                       : 5
Format                                   : UTF-8
Codec ID                                 : S_TEXT/UTF8
Codec ID/Info                            : UTF-8 Plain Text
Duration                                 : 1 h 32 min
Bit rate                                 : 49 b/s
Count of elements                        : 1290
Stream size                              : 33.3 KiB (0%)
Title                                    : Full
Language                                 : English
Default                                  : No
Forced                                   : No

Text #3
ID                                       : 6
Format                                   : UTF-8
Codec ID                                 : S_TEXT/UTF8
Codec ID/Info                            : UTF-8 Plain Text
Duration                                 : 1 h 35 min
Bit rate                                 : 57 b/s
Count of elements                        : 1516
Stream size                              : 40.1 KiB (0%)
Title                                    : SDH
Language                                 : English
Default                                  : No
Forced                                   : No

Menu
00:00:00.000                             : :Chapter 1
00:05:38.296                             : :Chapter 2
00:09:04.919                             : :Chapter 3
00:15:26.759                             : :Chapter 4
00:18:42.705                             : :Chapter 5
00:21:43.636                             : :Chapter 6
00:28:37.382                             : :Chapter 7
00:34:42.621                             : :Chapter 8
00:41:17.058                             : :Chapter 9
00:47:55.623                             : :Chapter 10
00:51:14.530                             : :Chapter 11
00:56:58.457                             : :Chapter 12
01:01:34.566                             : :Chapter 13
01:05:22.168                             : :Chapter 14
01:09:10.938                             : :Chapter 15
01:16:13.194                             : :Chapter 16
01:20:17.104                             : :Chapter 17
01:25:41.928                             : :Chapter 18
01:31:45.250                             : :Chapter 19
01:33:57.632                             : :Chapter 20
Світлини





Джерело: &
Особиста оцінка: 0 - не дивився


Авторський реліз (завантажувати можна без реєстрації)
 Трекер:    Зареєстрований   

Завантажити / скачати фільм українською



відео для новачків



 Зареєстрований:   2020-05-09 10:10
 Розмір:   5.45 GB 
 Оцінка фільму:   8.8/10 (Голосів: 27)
   
Інші релізи
   Апгрейд / Upgrade (2018) Remux 1080p Ukr/Eng | Sub Ukr/Eng MakRA  5 / 0   27.37 GB   2020-05-11 22:03 
   Апгрейд / Upgrade (2018) 1080р Ukr/Eng | sub Eng/Ukr BurtonJey  13 / 0   7.02 GB   2020-05-08 18:47 
   Апгрейд / Upgrade (2018) 720р Ukr/Eng | sub Ukr/Eng BurtonJey  7 / 0   5.04 GB   2020-05-08 18:25 
   Апгрейд / Upgrade (2018) BurtonJey  10 / 0   1.44 GB   2020-05-08 18:06 
   Апгрейд / Upgrade (2018) AVC Ukr/Eng | sub Ukr/Eng BurtonJey  18 / 0   2.35 GB   2020-05-08 17:45 
   Апгрейд / Upgrade (2018) Eng | sub Ukr >_stoneage_anonymous  2 / 0   1.38 GB   2018-12-18 14:00 
   Апгрейд (Стем) / Upgrade (2018) AVC Eng | Sub Ukr/Eng igor911  15 / 0   2.03 GB   2018-09-11 17:39 
bot 
робот


З нами з: 30.09.07
Востаннє: 26.05.05
Повідомлень: 26913

2020-05-09 10:10  
Тему перенесено з Фільми до форуму Фільми в HD


-Star-Lord-

Anonymous 







2020-05-09 10:11  
Додано укр. доріжку
vovakr 
Новенький


З нами з: 29.06.17
Востаннє: 15.01.21
Повідомлень: 4

2020-05-15 21:12  
О, боже! Яка маячня! Фільм категорії Б. Люди, не дивіться це.
MakRA 
VIP


З нами з: 10.11.18
Востаннє: 16.01.21
Повідомлень: 1166

2020-05-16 00:12  
Бомбезний фільм! Красивий, жорстокий і нестандартний.
poolvetrum 
VIP


З нами з: 01.06.14
Востаннє: 15.01.21
Повідомлень: 295

2020-05-25 01:13  
Скріни не інтригують зовсім. Якби не високий рейтинг, то пройшов би мимо. А фільм виявився добротний.

Згадується книжка Харарі, де він прогнозує, що людина в майбутньому намагатиметься набувати "божественної" сили за допомогою технологій. І висловлює побоювання, що новий технологічний вид людей буде загрозою для людей звичайних. Певною мірою це екранізація цього передбачення.

nazar.e30 
Новенький


З нами з: 09.01.11
Востаннє: 12.01.21
Повідомлень: 19

2020-06-01 20:55  
Дякую за реліз.

Фільм - гівно.

lazey 
Новенький


З нами з: 05.03.09
Востаннє: 15.01.21
Повідомлень: 14

2020-09-25 19:18  
Щось на кшталт Чорного Дзеркала, але рівень нижче. Тим не менш, дивитися цікаво
Ваш часовий пояс: GMT + 2 Години

Нова тема   Відповісти