Страсті Христові / The Passion of the Christ (2004) 1080p H.265 Ukr/Aramr | Sub Ukr/Eng

Нові коментарі

Нова тема   Відповісти
Автор Повідомлення
Anonymous 







2020-04-20 01:33  
Страсті Христові / The Passion of the Christ (2004) 1080p H.265 Ukr/Aramr | Sub Ukr/Eng

Страсті Христові / The Passion of the Christ (2004) 1080p H.265 Ukr/Aramr | Sub Ukr/Eng


Жанр: драма, історичний, християнський
Країна: США
Кінокомпанія: Icon Productions
Режисер: Мел Ґібсон / Mel Gibson
Актори: Джеймс Кевізел / James Caviezel, Майя Морґенштерн / Maia Morgenstern, Хрісто Дживков / Christo Jivkov, Франческо Де Віто / Francesco De Vito, Моніка Беллуччі / Monica Bellucci, Маттіа Сбраджа / Mattia Sbragia, Тоні Бертореллі / Toni Bertorelli та інші

Сюжет:
Фільм - перша в історії кіно спроба детально відтворити останні дванадцять годин з життя Ісуса Христа: від Гефсиманського саду до розп'яття. На відміну від "Останньої спокуси Христа", ця картина не містить в собі апокрифів і була схвалена різними християнськими конфесіями. Дія картини починається в Гефсиманському саду, куди Ісус прийшов помолитися після таємної вечері. Ісус чинить опір спокусам, яким піддає його сатана. Зраджений Юдою Іскаріотом, Ісус заарештований. Його приводять назад у Єрусалим, де проводирі фарисеїв звинувачують його в богохульстві, і суд над ним завершується смертним вироком. Прокуратор Пілат вислуховує звинувачення, висунуті фарисеями. Зрозумівши, що мова йде про політичний конфлікт, Пілат передає справу царю Іроду. Ірод посилає Ісуса до Пілата, і той пропонує натовпу зробити вибір між Ісусом і розбійником Варравою. Натовп обирає: свободу Варраві і смерть Ісусу. Ісуса передають римським солдатам і піддають тортурам. Спотвореного до невпізнання його знову приводять до Пілата, який показує його натовпу, ніби кажучи: "Хіба цього недостатньо?" Юрбі недостатньо. Пілат вмиває руки і наказує зробити так, як бажає натовп. Ісусові дають хрест і наказують пронести його по вулицях Єрусалиму до самої Голгофи. На Голгофі Ісуса розпинають, і він проходить через останню спокусу: страх, що Батько покинув його. Він долає цей страх, дивиться на свою матір Марію і вимовляє слова, які може зрозуміти до кінця тільки вона: "Звершилось".

Тривалість: 02:06:32
Якість:

Відео:
кодек: H.265 (HEVC)
розмір кадру: 1920 x 800
бітрейт: 8 021 кб/с
бітова глибина: 10 біт

Увага! Перед завантаженням переконайтесь, що ваш пристрій відтворення (та/або ПЗ) підтримує H.265 (HEVC)

Аудіо # 1:
мова: українська
переклад: одноголосий закадровий | Mister rock (Олексій Петренко)
кодек: AC-3 2.0
бітрейт: 192 кб/с

Аудіо # 2:
мова: арамейська, латина, гебрейська
переклад: оригінал
кодек: 5.1
бітрейт: 1510 кб/с

Субтитри # 1: (Full by Малдер)
мова: українська
тип: програмні (м'які)
формат: *.srt

Субтитри # 2: (Full)
мова: англійська
тип: програмні (м'які)
формат: *.srt


Info
Код:
General
Unique ID                                : 149978345129400561142824361054934611941 (0x70D4C751A322F36AB982B177742337E5)
Complete name                            : The Passion of the Christ (2004) 1080p H.265 [UKR_ENG] [Hurtom].
Format                                   :
Format version                           : Version 4
File size                                : 8.60 GiB
Duration                                 : 2 h 6 min
Overall bit rate                         : 9 725 kb/s
Movie name                               : Страсті Христові / The Passion of the Christ (2004)
Encoded date                             : UTC 2020-04-19 22:08:56
Writing application                      : v20.0.0 ('I Am The Sun') 64-bit
Writing library                          : libebml v1.3.5 + v1.4.8
Cover                                    : Yes
Attachments                              : Cover.jpg

Video
ID                                       : 1
Format                                   : HEVC
Format/Info                              : High Efficiency Video Coding
Format profile                           : Main [email protected]@High
Codec ID                                 : V_MPEGH/ISO/HEVC
Duration                                 : 2 h 6 min
Bit rate                                 : 8 021 kb/s
Width                                    : 1 920 pixels
Height                                   : 800 pixels
Display aspect ratio                     : 2.40:1
Frame rate mode                          : Constant
Frame rate                               : 23.976 (23976/1000) FPS
Original frame rate                      : 23.976 (24000/1001) FPS
Color space                              : YUV
Chroma subsampling                       : 4:2:0
Bit depth                                : 10 bits
Bits/(Pixel*Frame)                       : 0.218
Stream size                              : 7.09 GiB (82%)
Title                                    : Страсті Христові / The Passion of the Christ (2004)
Writing library                          : x265 3.0_Au+4-dcbec33bfb0f:[Windows][MSVC 1916][64 bit] 10bit
Encoding settings                        : cpuid=1111039 / frame-threads=3 / numa-pools=12 / wpp / no-pmode / no-pme / no-psnr / no-ssim / log-level=2 / input-csp=1 / input-res=1920x800 / interlace=0 / total-frames=86406 / level-idc=41 / high-tier=1 / uhd-bd=0 / ref=5 / no-allow-non-conformance / no-repeat-headers / annexb / no-aud / no-hrd / info / hash=0 / no-temporal-layers / open-gop / min-keyint=23 / keyint=240 / gop-lookahead=0 / bframes=16 / b-adapt=2 / b-pyramid / bframe-bias=0 / rc-lookahead=60 / lookahead-slices=4 / scenecut=40 / radl=0 / no-splice / no-intra-refresh / ctu=32 / min-cu-size=8 / rect / amp / max-tu-size=32 / tu-inter-depth=4 / tu-intra-depth=4 / limit-tu=1 / rdoq-level=2 / dynamic-rd=0.00 / no-ssim-rd / signhide / no-tskip / nr-intra=0 / nr-inter=0 / no-constrained-intra / no-strong-intra-smoothing / max-merge=4 / limit-refs=2 / limit-modes / me=3 / subme=7 / merange=57 / temporal-mvp / weightp / weightb / no-analyze-src-pics / deblock=-3:-3 / no-sao / no-sao-non-deblock / rd=6 / no-early-skip / no-rskip / no-fast-intra / no-tskip-fast / no-cu-lossless / no-b-intra / no-splitrd-skip / rdpenalty=0 / psy-rd=2.00 / psy-rdoq=1.00 / no-rd-refine / no-lossless / cbqpoffs=0 / crqpoffs=0 / rc=crf / crf=20.0 / qcomp=0.60 / qpstep=4 / stats-write=0 / stats-read=0 / vbv-maxrate=50000 / vbv-bufsize=50000 / vbv-init=0.9 / crf-max=0.0 / crf-min=0.0 / ipratio=1.40 / pbratio=1.30 / aq-mode=1 / aq-strength=0.90 / no-cutree / zone-count=0 / no-strict-cbr / qg-size=32 / no-rc-grain / qpmax=69 / qpmin=0 / no-const-vbv / sar=1 / overscan=0 / videoformat=5 / range=0 / colorprim=2 / transfer=2 / colormatrix=2 / chromaloc=0 / display-window=0 / max-cll=0,0 / min-luma=0 / max-luma=1023 / log2-max-poc-lsb=8 / vui-timing-info / vui-hrd-info / slices=1 / no-opt-qp-pps / no-opt-ref-list-length-pps / no-multi-pass-opt-rps / scenecut-bias=0.05 / no-opt-cu-delta-qp / no-aq-motion / no-hdr / no-hdr-opt / no-dhdr10-opt / no-idr-recovery-sei / analysis-reuse-level=5 / scale-factor=0 / refine-intra=0 / refine-inter=0 / refine-mv=0 / refine-ctu-distortion=0 / no-limit-sao / ctu-info=0 / no-lowpass-dct / refine-analysis-type=0 / copy-pic=1 / max-ausize-factor=1.0 / no-dynamic-refine / no-single-sei / no-hevc-aq / qp-adaptation-range=1.00
Default                                  : Yes
Forced                                   : No

Audio #1
ID                                       : 2
Format                                   : AC-3
Format/Info                              : Audio Coding 3
Commercial name                          : Dolby Digital
Codec ID                                 : A_AC3
Duration                                 : 2 h 6 min
Bit rate mode                            : Constant
Bit rate                                 : 192 kb/s
Channel(s)                               : 2 channels
Channel layout                           : L R
Sampling rate                            : 48.0 kHz
Frame rate                               : 31.250 FPS (1536 SPF)
Compression mode                         : Lossy
Stream size                              : 174 MiB (2%)
Title                                    : / 2.0 Ch / 192 kbps / ОЗ / Mister rock (Олексій Петренко)
Language                                 : Ukrainian
Service kind                             : Complete Main
Default                                  : Yes
Forced                                   : Yes

Audio #2
ID                                       : 3
Format                                   :
Format/Info                              : Digital Theater Systems
Codec ID                                 : A_DTS
Duration                                 : 2 h 6 min
Bit rate mode                            : Constant
Bit rate                                 : 1 509 kb/s
Channel(s)                               : 6 channels
Channel layout                           : C L R Ls Rs LFE
Sampling rate                            : 48.0 kHz
Frame rate                               : 93.750 FPS (512 SPF)
Bit depth                                : 24 bits
Compression mode                         : Lossy
Stream size                              : 1.33 GiB (16%)
Title                                    : / 5.1 Ch / 1509 kbps / Original
Language                                 : English
Default                                  : No
Forced                                   : No

Text #1
ID                                       : 4
Format                                   : UTF-8
Codec ID                                 : S_TEXT/UTF8
Codec ID/Info                            : UTF-8 Plain Text
Duration                                 : 2 h 0 min
Bit rate                                 : 26 b/s
Count of elements                        : 484
Stream size                              : 23.7 KiB (0%)
Title                                    : Full by Малдер
Language                                 : Ukrainian
Default                                  : Yes
Forced                                   : No

Text #2
ID                                       : 5
Format                                   : UTF-8
Codec ID                                 : S_TEXT/UTF8
Codec ID/Info                            : UTF-8 Plain Text
Duration                                 : 1 h 51 min
Bit rate                                 : 16 b/s
Count of elements                        : 519
Stream size                              : 13.8 KiB (0%)
Title                                    : Full
Language                                 : English
Default                                  : No
Forced                                   : No

Menu
00:00:00.000                             : en:Jesus prays in the Garden of Gethsemane as Judas Iscariot negotiates his betrayal with the Pharisees.
01:08:12.463                             : en:Jesus Is Condemned to Die.
01:12:33.515                             : en:Jesus Carries His Cross.
01:15:23.894                             : en:Jesus Falls the First Time.
01:16:37.926                             : en:Jesus Meets His Mother.
01:20:47.550                             : en:Simon Helps Jesus Carry His Cross.
01:23:18.076                             : en:Veronica Wipes the Face of Jesus & Jesus Falls the Second Time.
01:27:27.867                             : en:Jesus Meets the Women of Jerusalem.
01:28:12.954                             : en:Jesus Falls the Third Time.
01:34:33.459                             : en:Jesus Is Stripped.
01:34:52.311                             : en:Jesus Is Nailed to The Cross.
01:43:11.602                             : en:Jesus Dies on The Cross.
01:55:44.687                             : en:Jesus Is Taken Down from The Cross.
01:57:22.368                             : en:Jesus Rises From The Dead.
01:58:49.956                             : en:End Credits.
Світлини




Джерело: &
Особиста оцінка: 0 - не дивився


Авторський реліз (завантажувати можна без реєстрації)
 Трекер:    Зареєстрований   

Завантажити / скачати фільм українською



відео для новачків



 Зареєстрований:   2020-04-20 01:33
 Розмір:   8.6 GB 
 Оцінка фільму:   9/10 (Голосів: 9)
   
Ваш часовий пояс: GMT + 2 Години

Нова тема   Відповісти