Підземний світ / Underworld (1927) 1080p ENG | Sub Ukr [Німе Кіно]

Нові коментарі

Нова тема   Відповісти
Останній раз роздавалося roalad (2020-12-04)
Автор Повідомлення
Anonymous 







2020-04-19 23:09  
Підземний світ / Underworld (1927) 1080p ENG | Sub Ukr [Німе Кіно]

Підземний світ / Underworld (1927) 1080p ENG | Sub Ukr [Німе Кіно]


Жанр: драма, мелодрама, кримінальний
Країна: США



Кінокомпанія: Paramount Pictures
Режисер: Джозеф фон Штернберг
Актори: Клайв Брук, Евелін Брент, Джордж Бенкрофт, Ларрі Сімон, Фред Кохлер, Хелен Лінч, Джеррі Менді та інші.

Сюжет:
Гангстер «Булл» Від, некоронований король злочинного світу, підбирає п'яного і неохайного адвоката, допомагає йому і дає кличку Роллс-Ройс. Роллс-Ройс стає мозком банди Булла. Справа ускладнюється, коли Роллс-Ройс і дівчина Булла на прізвисько Пір'я закохуються один в одного…


Тривалість: 1:21:31
Якість:
Відео:
кодек:
розмір кадру: 1440х1080
бітрейт: 8 мб/с

Аудіо # 1:
мова: відсутня, лише музичний супровід (Robert Israel)
переклад: оригінал
кодек: 2.0
бітрейт: 1312 кб/с

Аудіо # 2:
мова: відсутня, лише музичний супровід (Alloy Orchestra)
переклад: оригінал
кодек: 2.0
бітрейт: 1315 кб/с

Субтитри:
мова: українська
тип: програмні (м'які)
формат: *.
переклад: власний аматорський, з російської
Info
General
Unique ID : 224293158340465371520848798870134334947 (0xA8BD4A7EC5FF5FCD46B1404BFA1C25E3)
Complete name : Underworld (1927) 1080p [SUB UKR].
Format :
Format version : Version 4
File size : 6.05 GiB
Duration : 1 h 21 min
Overall bit rate mode : Variable
Overall bit rate : 10.6 Mb/s
Encoded date : UTC 2020-04-19 18:24:34
Writing application : v45.0.0 ('Heaven in Pennies') 64-bit
Writing library : libebml v1.3.10 + v1.5.2
Attachments : Poster.jpg

Video
ID : 1
Format : AVC
Format/Info : Advanced Video Codec
Format profile : [email protected]
Format settings : CABAC / 5 Ref Frames
Format settings, CABAC : Yes
Format settings, Reference : 5 frames
Codec ID : V_MPEG4/ISO/AVC
Duration : 1 h 21 min
Bit rate : 8 000 kb/s
Width : 1 440 pixels
Height : 1 080 pixels
Display aspect ratio : 4:3
Frame rate mode : Constant
Frame rate : 23.976 (24000/1001) FPS
Color space : YUV
Chroma subsampling : 4:2:0
Bit depth : 8 bits
Scan type : Progressive
Bits/(Pixel*Frame) : 0.215
Stream size : 4.55 GiB (75%)
Writing library : core 157 r2935 545de2f
Encoding settings : cabac=1 / ref=5 / deblock=1:-1:-1 / analyse=0x3:0x113 / me=umh / subme=11 / psy=1 / psy_rd=1.00:0.15 / mixed_ref=1 / me_range=48 / chroma_me=1 / trellis=2 / 8x8dct=1 / cqm=0 / deadzone=21,11 / fast_pskip=0 / chroma_qp_offset=-5 / threads=34 / lookahead_threads=5 / sliced_threads=0 / nr=0 / decimate=1 / interlaced=0 / bluray_compat=0 / constrained_intra=0 / bframes=8 / b_pyramid=2 / b_adapt=2 / b_bias=0 / direct=1 / weightb=1 / open_gop=0 / weightp=2 / keyint=240 / keyint_min=23 / scenecut=40 / intra_refresh=0 / rc_lookahead=60 / rc=2pass / mbtree=1 / bitrate=8000 / ratetol=1.0 / qcomp=0.60 / qpmin=10 / qpmax=69 / qpstep=4 / cplxblur=20.0 / qblur=0.5 / vbv_maxrate=50000 / vbv_bufsize=62500 / nal_hrd=none / filler=0 / ip_ratio=1.40 / aq=1:1.00
Default : Yes
Forced : No

Audio #1
ID : 2
Format :
Format/Info : Free Lossless Audio Codec
Codec ID : A_FLAC
Duration : 1 h 21 min
Bit rate mode : Variable
Bit rate : 1 312 kb/s
Channel(s) : 2 channels
Sampling rate : 48.0 kHz
Frame rate : 11.719 FPS (4096 SPF)
Bit depth : 24 bits
Compression mode : Lossless
Stream size : 765 MiB (12%)
Writing library : libFLAC 1.2.1 (UTC 2007-09-17)
Default : Yes
Forced : No

Audio #2
ID : 3
Format :
Format/Info : Free Lossless Audio Codec
Codec ID : A_FLAC
Duration : 1 h 21 min
Bit rate mode : Variable
Bit rate : 1 315 kb/s
Channel(s) : 2 channels
Sampling rate : 48.0 kHz
Frame rate : 11.719 FPS (4096 SPF)
Bit depth : 24 bits
Compression mode : Lossless
Stream size : 767 MiB (12%)
Writing library : libFLAC 1.2.1 (UTC 2007-09-17)
Default : No
Forced : No

Text
ID : 4
Format :
Codec ID : S_TEXT/
Codec ID/Info : Advanced Sub Station Alpha
Duration : 1 h 21 min
Bit rate : 27 b/s
Count of elements : 169
Compression mode : Lossless
Stream size : 16.4 KiB (0%)
Language : Ukrainian
Default : Yes
Forced : No
Оригінальний постер 1927 року
Скріншоти







Інтересні факти
- Фільм получив оскар за найкращий сюжет у 1929 році.

- Вважалося, що фільм в прокаті провалиться, тому кінокомпанія Paramount Pictures якийсь час поклала його на полицю, а потім випустила на екрани, але тільки в одному кінотеатрі Нью-Йорка.

- Автор сценарію Бен Гехт (Ben Hecht 1894-1964) зажадав, щоб його ім'я з титрів прибрали. Так чи інакше, фільм став неймовірно популярним, а Гехт отримав за нього перший «Оскар». Всього він номінувався 6 разів, але виграв статуетку лише двічі.
Джерело:
Особиста оцінка: 7 - моїй подрузі не сподобалося


Срібний реліз (на рейтинг впливає 50% завантаженого)
 Трекер:    Зареєстрований   

Завантажити / скачати фільм українською



відео для новачків



 Зареєстрований:   2020-04-19 23:09
 Розмір:   6.05 GB 
 Оцінка фільму:   4/10 (Голосів: 2)
   
Ваш часовий пояс: GMT + 2 Години

Нова тема   Відповісти