Підземний світ / Underworld (1927) Remux 1080p ENG | Sub Ukr [Німе Кіно]

Нові коментарі

Нова тема   Відповісти
Автор Повідомлення
Anonymous 







2020-04-19 23:00  
Підземний світ / Underworld (1927) Remux 1080p ENG | Sub Ukr [Німе Кіно]

Підземний світ / Underworld (1927) Remux 1080p ENG | Sub Ukr [Німе Кіно]


Жанр: драма, мелодрама, кримінальний
Країна: США



Кінокомпанія: Paramount Pictures
Режисер: Джозеф фон Штернберг
Актори: Клайв Брук, Евелін Брент, Джордж Бенкрофт, Ларрі Сімон, Фред Кохлер, Хелен Лінч, Джеррі Менді та інші.

Сюжет:
Гангстер «Булл» Від, некоронований король злочинного світу, підбирає п'яного і неохайного адвоката, допомагає йому і дає кличку Роллс-Ройс. Роллс-Ройс стає мозком банди Булла. Справа ускладнюється, коли Роллс-Ройс і дівчина Булла на прізвисько Пір'я закохуються один в одного…


Тривалість: 1:21:31
Якість: Remux 1080p
Відео:
кодек:
розмір кадру: 1920х1080
бітрейт: 35,4 мб/с

Аудіо # 1:
мова: відсутня, лише музичний супровід (Robert Israel)
переклад: оригінал
кодек: 2.0
бітрейт: 1312 кб/с

Аудіо # 2:
мова: відсутня, лише музичний супровід (Alloy Orchestra)
переклад: оригінал
кодек: 2.0
бітрейт: 1315 кб/с

Субтитри:
мова: українська
тип: програмні (м'які)
формат: *.
переклад: власний аматорський, з російської
Info
General
Unique ID : 136613837819825224795088690361609115588 (0x66C6DE3C4ACF021D93808F70EB4257C4)
Complete name : Underworld (1927) Remux 1080p [SUB UKR].
Format :
Format version : Version 4
File size : 21.6 GiB
Duration : 1 h 21 min
Overall bit rate mode : Variable
Overall bit rate : 38.0 Mb/s
Encoded date : UTC 2020-04-19 18:50:28
Writing application : v45.0.0 ('Heaven in Pennies') 64-bit
Writing library : libebml v1.3.10 + v1.5.2
Attachments : Poster.jpg

Video
ID : 4
Format : AVC
Format/Info : Advanced Video Codec
Format profile : [email protected]
Format settings : CABAC / 4 Ref Frames
Format settings, CABAC : Yes
Format settings, Reference : 4 frames
Format settings, GOP : M=3, N=12
Codec ID : V_MPEG4/ISO/AVC
Duration : 1 h 21 min
Bit rate mode : Variable
Bit rate : 35.4 Mb/s
Maximum bit rate : 37.0 Mb/s
Width : 1 920 pixels
Height : 1 080 pixels
Display aspect ratio : 16:9
Frame rate mode : Constant
Frame rate : 23.976 (24000/1001) FPS
Color space : YUV
Chroma subsampling : 4:2:0
Bit depth : 8 bits
Scan type : Progressive
Bits/(Pixel*Frame) : 0.711
Stream size : 20.1 GiB (93%)
Default : Yes
Forced : No

Audio #1
ID : 1
Format :
Format/Info : Free Lossless Audio Codec
Codec ID : A_FLAC
Duration : 1 h 21 min
Bit rate mode : Variable
Bit rate : 1 312 kb/s
Channel(s) : 2 channels
Sampling rate : 48.0 kHz
Frame rate : 11.719 FPS (4096 SPF)
Bit depth : 24 bits
Compression mode : Lossless
Stream size : 765 MiB (3%)
Writing library : libFLAC 1.2.1 (UTC 2007-09-17)
Default : Yes
Forced : No

Audio #2
ID : 2
Format :
Format/Info : Free Lossless Audio Codec
Codec ID : A_FLAC
Duration : 1 h 21 min
Bit rate mode : Variable
Bit rate : 1 315 kb/s
Channel(s) : 2 channels
Sampling rate : 48.0 kHz
Frame rate : 11.719 FPS (4096 SPF)
Bit depth : 24 bits
Compression mode : Lossless
Stream size : 767 MiB (3%)
Writing library : libFLAC 1.2.1 (UTC 2007-09-17)
Default : No
Forced : No

Text
ID : 3
Format :
Codec ID : S_TEXT/
Codec ID/Info : Advanced Sub Station Alpha
Duration : 1 h 21 min
Bit rate : 27 b/s
Count of elements : 169
Compression mode : Lossless
Stream size : 16.4 KiB (0%)
Language : Ukrainian
Default : Yes
Forced : No
Оригінальний постер 1927 року
Скріншоти







Інтересні факти
- Фільм получив оскар за найкращий сюжет у 1929 році.

- Вважалося, що фільм в прокаті провалиться, тому кінокомпанія Paramount Pictures якийсь час поклала його на полицю, а потім випустила на екрани, але тільки в одному кінотеатрі Нью-Йорка.

- Автор сценарію Бен Гехт (Ben Hecht 1894-1964) зажадав, щоб його ім'я з титрів прибрали. Так чи інакше, фільм став неймовірно популярним, а Гехт отримав за нього перший «Оскар». Всього він номінувався 6 разів, але виграв статуетку лише двічі.
Джерело: &
Особиста оцінка: 7 - моїй подрузі не сподобалося


Золотий реліз (завантажене не впливає на рейтинг)
 Трекер:    Зареєстрований   

Завантажити / скачати фільм українською



відео для новачків



 Зареєстрований:   2020-04-19 23:00
 Розмір:   21.63 GB 
 Оцінка фільму:   4/10 (Голосів: 2)
   
Інші релізи
11FrYkT 
Модератор відео


З нами з: 20.02.11
Востаннє: 02.12.20
Повідомлень: 7045

2020-04-20 10:17  
Anonymous написано:

Аудіо # 1:
мова: відсутня, лише музичний супровід
переклад: оригінал
кодек:
бітрейт: 1312 кб/с

Аудіо # 2:
мова: відсутня, лише музичний супровід
переклад: оригінал
кодек:
бітрейт: 1315 кб/с

різниця?

Anonymous 







2020-04-20 10:59  
11FrYkT написано:
різниця?

Різні автори, різний музичний супровід. Найшов авторів, добавив в опис релізу.

Ваш часовий пояс: GMT + 2 Години

Нова тема   Відповісти