Щось не так з тобою / En liberté! (2018) Remux 1080p Ukr/Fre

Нові коментарі

Нова тема   Відповісти
Автор Повідомлення
Anonymous 







2020-04-19 19:24  
Щось не так з тобою / En liberté! (2018) Remux 1080p Ukr/Fre

Щось не так з тобою / En liberté! (2018) Remux 1080p Ukr/Fre


Жанр: комедія, кримінальний, драма
Країна: Франція



Кінокомпанія: Les Films Pelléas, France 2 Cinéma, MK2 Productions
Режисер: Пєр Сальвадорі
Актори: Адель Енель, Одрі Тоту, Піо Мармай

Сюжет:
У містечку на Лазуровому узбережжі Франції живе Івонн (Адель Енель). Вона служить у поліції та сама виховує 8-річного сина. Її чоловік, також поліцейський, героїчно загинув. Йому навіть пам’ятник мають встановити. Та якось, допитуючи злочинців, Івонн дізнається, що насправді її благовірний був продажним копом і через його афери постраждало чимало людей. Один із них – Антуан (Піо Мармай) – незаслужено відсидів у в’язниці 8 років. Аби хоч якось загладити вину чоловіка, Івонн вирішує допомогти Антуану налагодити нормальне життя після виходу з тюрми.


Тривалість: 01:48:43
Якість: Blu-Ray Remux 1080p
Відео:
кодек:
розмір кадру: 1920 х 1080
бітрейт: 24000 кб/с

Аудіо # 1:
мова: українська
переклад: багатоголосий закадровий | студія Tretyakoff production
кодек: 5.1
бітрейт: 384 кб/с
примітка: з цим озвученням показували на телеканалі Інтер

Аудіо # 2:
мова: французька
переклад: оригінал
кодек: 5.1
бітрейт: 448 кб/с

Аудіо # 3:
мова: французька
переклад: оригінал
кодек: -HD MA 5.1
бітрейт: 1476 кб/с
Info
Код:
General
Complete name                            : En liberté! (2018) Remux 1080p [Ukr_Fre] [Video_Hurtom].
Format                                   :
Format version                           : Version 4
File size                                : 20.0 GiB
Duration                                 : 1 h 48 min
Overall bit rate mode                    : Variable
Overall bit rate                         : 26.3 Mb/s
Movie name                               : Щось не так з тобою / En liberté! (2018)
Encoded date                             : UTC 2020-04-19 16:09:12
Writing application                      : v44.0.0 ('Domino') 64-bit
Writing library                          : libebml v1.3.10 + v1.5.2
Cover                                    : Yes
Attachments                              : cover.jpg

Video
ID                                       : 1
Format                                   : AVC
Format/Info                              : Advanced Video Codec
Format profile                           : [email protected]
Format settings                          : CABAC / 3 Ref Frames
Format settings, CABAC                   : Yes
Format settings, RefFrames               : 3 frames
Codec ID                                 : V_MPEG4/ISO/AVC
Duration                                 : 1 h 48 min
Bit rate mode                            : Variable
Bit rate                                 : 24.0 Mb/s
Maximum bit rate                         : 38.0 Mb/s
Width                                    : 1 920 pixels
Height                                   : 1 080 pixels
Display aspect ratio                     : 16:9
Frame rate mode                          : Constant
Frame rate                               : 24.000 FPS
Color space                              : YUV
Chroma subsampling                       : 4:2:0
Bit depth                                : 8 bits
Scan type                                : Progressive
Bits/(Pixel*Frame)                       : 0.482
Stream size                              : 18.2 GiB (91%)
Writing library                          : core 158 r2984 3759fcb
Encoding settings                        : cabac=1 / ref=4 / deblock=1:-1:-1 / analyse=0x3:0x133 / me=umh / subme=10 / psy=1 / psy_rd=1.00:0.15 / mixed_ref=1 / me_range=24 / chroma_me=1 / trellis=2 / 8x8dct=1 / cqm=0 / deadzone=21,11 / fast_pskip=1 / chroma_qp_offset=-3 / threads=18 / lookahead_threads=1 / sliced_threads=0 / slices=4 / nr=0 / decimate=1 / interlaced=0 / bluray_compat=1 / constrained_intra=0 / bframes=3 / b_pyramid=1 / b_adapt=2 / b_bias=0 / direct=3 / weightb=1 / open_gop=1 / weightp=1 / keyint=24 / keyint_min=1 / scenecut=40 / intra_refresh=0 / rc_lookahead=24 / rc=2pass / mbtree=1 / bitrate=24000 / ratetol=1.0 / qcomp=0.60 / qpmin=0 / qpmax=69 / qpstep=4 / cplxblur=20.0 / qblur=0.5 / vbv_maxrate=38000 / vbv_bufsize=28000 / nal_hrd=vbr / filler=0 / ip_ratio=1.40 / aq=1:1.00
Language                                 : English
Default                                  : Yes
Forced                                   : No
Color range                              : Limited
Color primaries                          : BT.709
Transfer characteristics                 : BT.709
Matrix coefficients                      : BT.709

Audio #1
ID                                       : 2
Format                                   : AC-3
Format/Info                              : Audio Coding 3
Commercial name                          : Dolby Digital
Codec ID                                 : A_AC3
Duration                                 : 1 h 48 min
Bit rate mode                            : Constant
Bit rate                                 : 384 kb/s
Channel(s)                               : 6 channels
Channel layout                           : L R C LFE Ls Rs
Sampling rate                            : 48.0 kHz
Frame rate                               : 31.250 FPS (1536 SPF)
Bit depth                                : 16 bits
Compression mode                         : Lossy
Stream size                              : 299 MiB (1%)
Title                                    : АС3, 6 ch, 384 Кбт/с
Language                                 : Ukrainian
Service kind                             : Complete Main
Default                                  : Yes
Forced                                   : No

Audio #2
ID                                       : 3
Format                                   : AC-3
Format/Info                              : Audio Coding 3
Commercial name                          : Dolby Digital
Codec ID                                 : A_AC3
Duration                                 : 1 h 48 min
Bit rate mode                            : Constant
Bit rate                                 : 448 kb/s
Channel(s)                               : 6 channels
Channel layout                           : L R C LFE Ls Rs
Sampling rate                            : 48.0 kHz
Frame rate                               : 31.250 FPS (1536 SPF)
Bit depth                                : 16 bits
Compression mode                         : Lossy
Stream size                              : 348 MiB (2%)
Title                                    : АС3, 6 ch, 448 Кбт/с
Language                                 : English
Service kind                             : Complete Main
Default                                  : No
Forced                                   : No

Audio #3
ID                                       : 4
Format                                   : XLL
Format/Info                              : Digital Theater Systems
Commercial name                          : -HD Master Audio
Codec ID                                 : A_DTS
Duration                                 : 1 h 48 min
Bit rate mode                            : Variable
Bit rate                                 : 1 476 kb/s
Channel(s)                               : 6 channels
Channel layout                           : C L R Ls Rs LFE
Sampling rate                            : 48.0 kHz
Frame rate                               : 93.750 FPS (512 SPF)
Bit depth                                : 16 bits
Compression mode                         : Lossless
Stream size                              : 1.12 GiB (6%)
Title                                    : -HD MA, 6 ch, 1476 Кбт/с
Language                                 : French
Default                                  : No
Forced                                   : No

Menu
00:00:00.000                             : en:Глава 01
00:10:19.125                             : en:Глава 02
00:20:10.958                             : en:Глава 03
00:29:54.500                             : en:Глава 04
00:39:51.958                             : en:Глава 05
00:50:31.167                             : en:Глава 06
00:58:36.042                             : en:Глава 07
01:08:36.833                             : en:Глава 08
01:17:01.208                             : en:Глава 09
01:24:40.417                             : en:Глава 10
01:37:28.250                             : en:Глава 11
01:43:58.417                             : en:Глава 12

Скріншоти



Звук взято з релізу: Щось не так з тобою / En liberté! (2018)
Зведення: Bohdan237

Джерело:
Особиста оцінка: 0 - не дивився


Золотий реліз (завантажене не впливає на рейтинг)
 Трекер:    Зареєстрований   

Завантажити / скачати фільм українською



відео для новачків



 Зареєстрований:   2020-04-19 21:48
 Розмір:   19.97 GB 
 Оцінка фільму:   8.5/10 (Голосів: 8)
   
Інші релізи
   Щось не так з тобою / En liberté! (2018) 1080p Ukr/Fre staf777  5 / 0   8.37 GB   2020-04-19 22:01 
   Щось не так з тобою / En liberté! (2018) antik_2008  7 / 0   1.44 GB   2020-04-19 21:46 
   Щось не так з тобою / En liberté! (2018) 720p Ukr/Fre Bohdan237  3 / 0   4.19 GB   2020-04-19 18:54 
bot 
робот


З нами з: 30.09.07
Востаннє: 26.05.05
Повідомлень: 25655

2020-04-19 21:48  
Тему перенесено з Анонси релізів до форуму Фільми в HD


antik_2008

Anonymous 







2020-04-23 21:24  
Цікавий фільм
Ваш часовий пояс: GMT + 2 Години

Нова тема   Відповісти