Візит / The Visit (2015) 1080p Eng | Sub Ukr/Eng

Нові коментарі

Нова тема   Відповісти
Автор Повідомлення
Anonymous 







2020-04-19 15:42  
Візит / The Visit (2015) 1080p Eng | Sub Ukr/Eng


Альтернативний постер:

Візит / The Visit (2015) 1080p Eng | Sub Ukr/Eng]




Жанр: трилер, жахи
Країна: США


Кінокомпанія: Blinding Edge Pictures,Blumhouse Productions,Universal Pictures.
Режисер: М. Найт Ш'ямалан
Актори: Олівія Деджонг, ЕД Оксенбоулд, Кетрін Ган, Діанна Данаган, Пітер МакРобі, Бенжамін Кейнс, Селісія Кінан-Болгер.

Сюжет:
Багато років тому вона втекла з батьківського дому і відтоді намагалася не згадувати події тієї самої ночі. Тепер у неї вже дорослі діти. Одного разу вони отримують запрошення від бабусі й дідусі, яких ніколи не бачили раніше.

Тривалість: 01:34:01
Якість: 1080p
Відео:
Кодек: H264
Розмір кадру: 1920x1038
Бітрейт: 15.1 Мбіт/с

Аудіо #1:
Мова: англійська
Переклад: Оригінал
Кодек: 5.1
Бітрейт: 1509 Кбіт/с

Субтитри #1:
Мова: українська | Повні
Тип: програмні (м'які)
Формат: *.srt

Субтитри #2:
Мова: англійська | Повні, SDH
Тип: програмні (м'які)
Формат: *.srt

Джерело перекладу:
Info


General
Unique ID : 178665590262399013397779260087495714690 (0x8669BDB4428778F2AC94B13F82066782)
Format :
Format version : Version 4
File size : 10.9 GiB
Duration : 1 h 34 min
Overall bit rate : 16.6 Mb/s
Movie name : The Visit (2015) 1080p [Eng][SubUkrEng] [Hurtom]
Encoded date : UTC 2020-04-19 12:21:44
Writing application : v45.0.0 ('Heaven in Pennies') 64-bit
Writing library : libebml v1.3.10 + v1.5.2
Attachments : poster.jpg

Video
ID : 1
Format : AVC
Format/Info : Advanced Video Codec
Format profile : [email protected]
Format settings : CABAC / 4 Ref Frames
Format settings, CABAC : Yes
Format settings, Reference fra : 4 frames
Codec ID : V_MPEG4/ISO/AVC
Duration : 1 h 33 min
Bit rate : 15.1 Mb/s
Width : 1 920 pixels
Height : 1 038 pixels
Display aspect ratio : 1.85:1
Frame rate mode : Constant
Frame rate : 23.976 (24000/1001) FPS
Color space : YUV
Chroma subsampling : 4:2:0
Bit depth : 8 bits
Scan type : Progressive
Bits/(Pixel*Frame) : 0.316
Stream size : 9.90 GiB (91%)
Title : The Visit (2015) 1920x1038p
Writing library : core 159
Encoding settings : cabac=1 / ref=4 / deblock=1:-3:-3 / analyse=0x3:0x133 / me=umh / subme=10 / psy=1 / psy_rd=1.00:0.00 / mixed_ref=1 / me_range=24 / chroma_me=1 / trellis=2 / 8x8dct=1 / cqm=0 / deadzone=21,11 / fast_pskip=0 / chroma_qp_offset=-2 / threads=18 / lookahead_threads=3 / sliced_threads=0 / nr=0 / decimate=1 / interlaced=0 / bluray_compat=0 / constrained_intra=0 / bframes=8 / b_pyramid=2 / b_adapt=2 / b_bias=0 / direct=3 / weightb=1 / open_gop=0 / weightp=2 / keyint=250 / keyint_min=23 / scenecut=40 / intra_refresh=0 / rc_lookahead=60 / rc=crf / mbtree=1 / crf=15.0 / qcomp=0.60 / qpmin=0 / qpmax=69 / qpstep=4 / ip_ratio=1.40 / aq=1:1.00
Language : English
Default : Yes
Forced : No

Audio
ID : 2
Format :
Format/Info : Digital Theater Systems
Codec ID : A_DTS
Duration : 1 h 34 min
Bit rate mode : Constant
Bit rate : 1 509 kb/s
Channel(s) : 6 channels
Channel layout : C L R Ls Rs LFE
Sampling rate : 48.0 kHz
Frame rate : 93.750 FPS (512 SPF)
Bit depth : 24 bits
Compression mode : Lossy
Stream size : 1 015 MiB (9%)
Title : [Оригінал] 5.1 @ 1509 Кбіт/с
Language : English
Default : Yes
Forced : No

Text #1
ID : 3
Format : UTF-8
Codec ID : S_TEXT/UTF8
Codec ID/Info : UTF-8 Plain Text
Duration : 1 h 32 min
Bit rate : 89 b/s
Count of elements : 1140
Stream size : 61.0 KiB (0%)
Title : Повні [BluRay]
Language : Ukrainian
Default : Yes
Forced : No

Text #2
ID : 4
Format : UTF-8
Codec ID : S_TEXT/UTF8
Codec ID/Info : UTF-8 Plain Text
Duration : 1 h 29 min
Bit rate : 55 b/s
Count of elements : 1172
Stream size : 36.2 KiB (0%)
Title : Full
Language : English
Default : No
Forced : No

Text #3
ID : 5
Format : UTF-8
Codec ID : S_TEXT/UTF8
Codec ID/Info : UTF-8 Plain Text
Duration : 1 h 29 min
Bit rate : 62 b/s
Count of elements : 1349
Stream size : 40.6 KiB (0%)
Title : SDH
Language : English
Default : No
Forced : No

Menu
00:00:00.000 : en:00:00:00.000
00:02:51.921 : en:00:02:51.921
00:06:38.356 : en:00:06:38.356
00:11:08.709 : en:00:11:08.709
00:17:11.947 : en:00:17:11.947
00:21:39.798 : en:00:21:39.798
00:25:45.752 : en:00:25:45.752
00:29:44.824 : en:00:29:44.824
00:34:24.854 : en:00:34:24.854
00:40:48.571 : en:00:40:48.571
00:44:42.012 : en:00:44:42.012
00:48:16.393 : en:00:48:16.393
00:52:34.734 : en:00:52:34.734
00:57:08.383 : en:00:57:08.383
01:00:54.108 : en:01:00:54.108
01:05:17.163 : en:01:05:17.163
01:09:08.185 : en:01:09:08.185
01:13:38.372 : en:01:13:38.372
01:23:58.908 : en:01:23:58.908
01:28:54.037 : en:01:28:54.037
Скріншоти










Джерело:


 Трекер:    Зареєстрований   

Завантажити / скачати фільм українською



відео для новачків



 Зареєстрований:   2020-04-19 15:42
 Розмір:   10.89 GB 
 Оцінка фільму:   9.5/10 (Голосів: 2)
   
Інші релізи
   Візит / The Visit (2015) 720 Eng | Sub Ukr/Eng leicheman  3 / 0   4.49 GB   2016-01-22 21:36 
Dogmad 
Свій


З нами з: 08.11.17
Востаннє: 11.11.20
Повідомлень: 78

2020-11-05 22:53  
Трошки дофіга важить...
А фільм чудовий.

Ваш часовий пояс: GMT + 2 Години

Нова тема   Відповісти