Конан-варвар / Conan the Barbarian (1982) 1080p 2хUkr/Eng | Sub Eng

Нові коментарі

Нова тема   Відповісти
Автор Повідомлення
PatataFrita 
Свій


З нами з: 05.04.20
Востаннє: 08.09.20
Повідомлень: 83

2020-04-19 08:34  
Конан-варвар / Conan the Barbarian (1982) 1080p 2хUkr/Eng | Sub Eng

Конан-варвар / Conan the Barbarian (1982) 1080p 2хUkr/Eng | Sub Eng


Жанр: фентезі, бойовик, пригоди
Країна: США



Кінокомпанія: Universal Pictures, Dino De Laurentiis
Режисер: Джон Міліус
Актори: Арнольд Шварценеґґер, Джеймс Ерл Джонс, Макс фон Сюдов, Сандал Бергман, Бен Девідсон, Кассандра Гава

Сюжет:
У дитинстві Конан став свідком жорстокого вбивства своїх батьків нещадним Тулса Думом. Його збожеволілі від запаху крові солдати розорили і спалили до тла рідне село Конана. Хлопчик виростає в рабстві і перетворюється в воїна що володіє неймовірною силою та м'язової масою непереможного.
Поклявшись помститися за батьків він вирушає на пошуки свого ворога. Його шлях сповнений неймовірних пригод, відчайдушних поєдинків, несподіваних зустрічей і небезпек.
Конан з гідністю проходить всі випробування, але чи зможе він перемогти в останній і найнебезпечнішої битві в його житті, битві з непереможним Тулса Думом?



Тривалість: 02:10:31
Якість:
Відео:
кодек:
розмір кадру: 1920x816
бітрейт: 14500 кб/с

Аудіо # 1:
мова: українська
переклад: двоголосий закадровий
кодек: 5.1
бітрейт: 1510 кб/с

Аудіо # 2:
мова: українська
переклад: двоголосий закадровий
кодек: 2.0
бітрейт: 192 кб/с

Аудіо # 3:
мова: англійська
переклад: оригінал
кодек: 5.1
бітрейт: 1510 кб/с

Джерело озвучення:
,

Субтитри:
мова: українська
тип: програмні (м'які)
формат: *.srt
(в обох українських доріжках
присутній невеличкий півтора хвилинний НЕперекладений шматок,
переклад саме на нього)


Субтитри:
мова: англійська
тип: програмні (м'які)
формат: *.srt
Info
General
Unique ID : 43251469504251675548965848733687936688 (0x2089EE162A097F4852F2E925832AF6B0)
Complete name : D:\Conan the Barbarian (1982) 1080p [2хukr, eng, sub eng] [KORSAR & Hurtom].
Format :
Format version : Version 4
File size : 16.1 GiB
Duration : 2 h 10 min
Overall bit rate : 17.7 Mb/s
Movie name : Conan the Barbarian (1982) 1080p [2хukr, eng, sub eng] [KORSAR & Hurtom]
Encoded date : UTC 2020-04-19 04:52:04
Writing application : v45.0.0 ('Heaven in Pennies') 32-bit
Writing library : libebml v1.3.10 + v1.5.2
Cover : Yes
Attachments : cover.jpg

Video
ID : 1
Format : AVC
Format/Info : Advanced Video Codec
Format profile : [email protected]
Format settings : CABAC / 5 Ref Frames
Format settings, CABAC : Yes
Format settings, Reference : 5 frames
Codec ID : V_MPEG4/ISO/AVC
Duration : 2 h 10 min
Bit rate : 14.5 Mb/s
Width : 1 920 pixels
Height : 816 pixels
Display aspect ratio : 2.35:1
Frame rate mode : Constant
Frame rate : 23.976 (24000/1001) FPS
Color space : YUV
Chroma subsampling : 4:2:0
Bit depth : 8 bits
Scan type : Progressive
Bits/(Pixel*Frame) : 0.386
Stream size : 13.2 GiB (82%)
Title : Конан-варвар / Conan The Barbarian (1982) 1080p - KORSAR
Writing library : core 148 r2744kMod b97ae06
Encoding settings : cabac=1 / ref=5 / deblock=1:-3:-3 / analyse=0x3:0x113 / me=umh / subme=11 / psy=1 / fade_compensate=0.00 / psy_rd=1.00:0.00 / mixed_ref=1 / me_range=32 / chroma_me=1 / trellis=2 / 8x8dct=1 / cqm=0 / deadzone=21,11 / fast_pskip=0 / chroma_qp_offset=-2 / threads=12 / lookahead_threads=3 / sliced_threads=0 / nr=0 / decimate=0 / interlaced=0 / bluray_compat=0 / constrained_intra=0 / bframes=12 / b_pyramid=2 / b_adapt=2 / b_bias=0 / direct=3 / weightb=1 / open_gop=0 / weightp=2 / keyint=240 / keyint_min=23 / scenecut=40 / intra_refresh=0 / rc_lookahead=60 / rc=2pass / mbtree=0 / bitrate=14500 / ratetol=1.0 / qcomp=0.60 / qpmin=0 / qpmax=69 / qpstep=4 / cplxblur=20.0 / qblur=0.5 / vbv_maxrate=50000 / vbv_bufsize=62500 / nal_hrd=none / filler=0 / ip_ratio=1.40 / pb_ratio=1.30 / aq=1:1.00
Language : English
Default : Yes
Forced : No
Color range : Limited
Color primaries : BT.709
Transfer characteristics : BT.709
Matrix coefficients : BT.709

Audio #1
ID : 2
Format :
Format/Info : Digital Theater Systems
Codec ID : A_DTS
Duration : 2 h 10 min
Bit rate mode : Constant
Bit rate : 1 509 kb/s
Channel(s) : 6 channels
Channel layout : C L R Ls Rs LFE
Sampling rate : 48.0 kHz
Frame rate : 93.750 FPS (512 SPF)
Bit depth : 24 bits
Compression mode : Lossy
Stream size : 1.38 GiB (9%)
Title : 5.1 1509 кб/с | багатоголосий закадровий | 1+1
Language : Ukrainian
Default : Yes
Forced : No

Audio #2
ID : 3
Format : AC-3
Format/Info : Audio Coding 3
Commercial name : Dolby Digital
Codec ID : A_AC3
Duration : 2 h 10 min
Bit rate mode : Constant
Bit rate : 192 kb/s
Channel(s) : 2 channels
Channel layout : L R
Sampling rate : 48.0 kHz
Frame rate : 31.250 FPS (1536 SPF)
Compression mode : Lossy
Stream size : 179 MiB (1%)
Title : 2.0 192 кб/с | багатоголосий закадровий | Новий канал
Language : Ukrainian
Service kind : Complete Main
Default : No
Forced : No

Audio #3
ID : 4
Format :
Format/Info : Digital Theater Systems
Codec ID : A_DTS
Duration : 2 h 10 min
Bit rate mode : Constant
Bit rate : 1 509 kb/s
Channel(s) : 6 channels
Channel layout : C L R Ls Rs LFE
Sampling rate : 48.0 kHz
Frame rate : 93.750 FPS (512 SPF)
Bit depth : 24 bits
Compression mode : Lossy
Stream size : 1.38 GiB (9%)
Title : 5.1 1509 кб/с | Оригінал
Language : English
Default : No
Forced : No

Text #1
ID : 5
Format : UTF-8
Codec ID : S_TEXT/UTF8
Codec ID/Info : UTF-8 Plain Text
Duration : 1 min 22 s
Bit rate : 106 b/s
Count of elements : 18
Stream size : 1.07 KiB (0%)
Title : НЕперекладений шматок
Language : Ukrainian
Default : Yes
Forced : Yes

Text #2
ID : 6
Format : UTF-8
Codec ID : S_TEXT/UTF8
Codec ID/Info : UTF-8 Plain Text
Duration : 2 h 9 min
Bit rate : 18 b/s
Count of elements : 627
Stream size : 17.2 KiB (0%)
Language : English
Default : No
Forced : No

Menu
00:00:00.000 : en:00:00:00.000
00:13:35.148 : en:00:13:35.148
00:17:38.683 : en:00:17:38.683
00:24:09.323 : en:00:24:09.323
00:29:45.200 : en:00:29:45.200
00:36:55.588 : en:00:36:55.588
00:48:39.291 : en:00:48:39.291
00:59:52.547 : en:00:59:52.547
01:05:16.162 : en:01:05:16.162
01:16:01.432 : en:01:16:01.432
01:23:44.436 : en:01:23:44.436
01:38:02.335 : en:01:38:02.335
01:44:03.571 : en:01:44:03.571
01:56:24.978 : en:01:56:24.978
02:06:02.346 : en:02:06:02.346
Скріншоти
Джерело: & KORSAR
Особиста оцінка: 10 - без зайвих вагань рекомендую всім!


Срібний реліз (на рейтинг впливає 50% завантаженого)
 Трекер:    Зареєстрований   

Завантажити / скачати фільм українською



відео для новачків



 Зареєстрований:   2020-04-19 08:34
 Розмір:   16.15 GB 
 Оцінка фільму:   10/10 (Голосів: 8)
   
Інші релізи
Ваш часовий пояс: GMT + 2 Години

Нова тема   Відповісти