Грім у тропіках [Розширена версія] / Tropic Thunder [Unrated Director's Cut] (2008) 1080p H.265 Ukr/Eng | Sub Ukr/Eng

Нові коментарі

Нова тема   Відповісти
Автор Повідомлення
Anonymous 







2020-04-18 23:42  
Грім у тропіках [Розширена версія] / Tropic Thunder [Unrated Director's Cut] (2008) 1080p H.265 Ukr/Eng | Sub Ukr/Eng

Грім у тропіках [Розширена версія] / Tropic Thunder [Unrated Director's Cut] (2008) 1080p H.265 Ukr/Eng | Sub Ukr/Eng


Жанр: екшн, комедія
Країна: США, Велика Британія, Німеччина
Кінокомпанія: DreamWorks SKG, Red Hour Films, Goldcrest Pictures
Режисер: Бен Стілер [Ben Stiller]
Актори: Джеф Кан [Jeff Kahn], Роберт Дауні-молодший [Robert Downey Jr.], Ентоні Руйвівар [Anthony Ruivivar], Джек Блeк [Jack Black], Джей Барушель [Jay Baruchel], Брендон Т. Джексон [Brandon T. Jackson], Бен Стіллер [Ben Stiller], Ерік Вінзенрід [Eric Winzenried], Стів Куган [Steve Coogan], Валері Езлінн [Valerie Azlynn], Мет Левін [Matt Levin], Девід Пресман [David Pressman], Емі Стіллер [Amy Stiller], Денні МакБрайд [Danny McBride], Демпсі Сілва [Dempsey Silva]

Сюжет:
Камера. Мотор. Почали! Великий бюджет, реальні тропічні джунглі, досвідчені актори - це знімається черговий супер-блокбастер про війну. Але серія вельми дивних обставин вимушує солдат-акторів забути про те, що вони актори, і стати просто солдатами - інакше їм не вижити!

Тривалість: 02:01:08
Якість:

Відео:
кодек: H.265 (HEVC)
розмір кадру: 1920 x 820
бітрейт: 9 859 кб/с
бітова глибина: 10 біт

Увага! Перед завантаженням переконайтесь, що ваш пристрій відтворення (та/або ПЗ) підтримує H.265 (HEVC)

Аудіо # 1:
мова: українська
переклад: професійний дубльований | Студія LeDoyen
кодек: AC-3 5.1
бітрейт: 448 кб/с
примітка: з вставками оригіналу на епізоди розширеної версії

Аудіо # 2:
мова: англійська
переклад: оригінал
кодек: 5.1
бітрейт: 1511 кб/с

Субтитри # 1-2: (Forced, Full)
мова: українська
тип: програмні (м'які)
формат: *.srt

Субтитри # 3: (Full)
мова: англійська
тип: програмні (м'які)
формат: *.srt


Info
Код:
General
Unique ID                                : 38659869885224725592258823890930201700 (0x1D159EBF4110894622085D8BD8A77464)
Complete name                            : Tropic Thunder [Director's Cut] (2008) 1080p [UKR_ENG] [Hurtom].
Format                                   :
Format version                           : Version 4
File size                                : 10.0 GiB
Duration                                 : 2 h 1 min
Overall bit rate                         : 11.8 Mb/s
Movie name                               : Грім у тропіках [Розширена версія] / Tropic Thunder [Unrated Director's Cut] (2008)
Encoded date                             : UTC 2020-04-18 19:13:54
Writing application                      : v20.0.0 ('I Am The Sun') 64-bit
Writing library                          : libebml v1.3.5 + v1.4.8
Cover                                    : Yes
Attachments                              : cover.jpg

Video
ID                                       : 1
Format                                   : HEVC
Format/Info                              : High Efficiency Video Coding
Format profile                           : Main [email protected]@High
Codec ID                                 : V_MPEGH/ISO/HEVC
Duration                                 : 2 h 1 min
Bit rate                                 : 9 859 kb/s
Width                                    : 1 920 pixels
Height                                   : 820 pixels
Display aspect ratio                     : 2.35:1
Frame rate mode                          : Constant
Frame rate                               : 23.976 (24000/1001) FPS
Color space                              : YUV
Chroma subsampling                       : 4:2:0
Bit depth                                : 10 bits
Bits/(Pixel*Frame)                       : 0.261
Stream size                              : 8.34 GiB (83%)
Title                                    : Грім у тропіках [Розширена версія] / Tropic Thunder [Unrated Director's Cut] (2008)
Writing library                          : x265 3.2+5-354901970679:[Windows][clang 8.0.1][64 bit] 10bit
Encoding settings                        : cpuid=1049583 / frame-threads=5 / numa-pools=4 / wpp / no-pmode / no-pme / no-psnr / no-ssim / log-level=3 / input-csp=1 / input-res=1920x820 / interlace=0 / total-frames=0 / level-idc=41 / high-tier=1 / uhd-bd=0 / ref=5 / allow-non-conformance / no-repeat-headers / annexb / no-aud / no-hrd / info / hash=0 / no-temporal-layers / open-gop / min-keyint=24 / keyint=240 / gop-lookahead=0 / bframes=9 / b-adapt=2 / b-pyramid / bframe-bias=0 / rc-lookahead=40 / lookahead-slices=5 / scenecut=40 / radl=0 / no-splice / no-intra-refresh / ctu=32 / min-cu-size=8 / rect / no-amp / max-tu-size=32 / tu-inter-depth=4 / tu-intra-depth=4 / limit-tu=1 / rdoq-level=1 / dynamic-rd=0.00 / no-ssim-rd / signhide / no-tskip / nr-intra=0 / nr-inter=0 / no-constrained-intra / no-strong-intra-smoothing / max-merge=5 / limit-refs=1 / no-limit-modes / me=3 / subme=7 / merange=57 / temporal-mvp / no-frame-dup / no-hme / weightp / no-weightb / no-analyze-src-pics / deblock=-3:-3 / no-sao / no-sao-non-deblock / rd=4 / selective-sao=0 / early-skip / no-rskip / no-fast-intra / no-tskip-fast / no-cu-lossless / b-intra / no-splitrd-skip / rdpenalty=0 / psy-rd=2.00 / psy-rdoq=1.00 / no-rd-refine / no-lossless / cbqpoffs=0 / crqpoffs=0 / rc=crf / crf=21.0 / qcomp=0.60 / qpstep=4 / stats-write=0 / stats-read=0 / vbv-maxrate=50000 / vbv-bufsize=50000 / vbv-init=0.9 / crf-max=0.0 / crf-min=0.0 / ipratio=1.40 / pbratio=1.30 / aq-mode=3 / aq-strength=1.00 / no-cutree / zone-count=0 / no-strict-cbr / qg-size=32 / no-rc-grain / qpmax=69 / qpmin=0 / no-const-vbv / sar=1 / overscan=0 / videoformat=5 / range=0 / colorprim=1 / transfer=1 / colormatrix=1 / chromaloc=0 / display-window=0 / cll=0,0 / min-luma=0 / max-luma=1023 / log2-max-poc-lsb=8 / vui-timing-info / vui-hrd-info / slices=1 / no-opt-qp-pps / no-opt-ref-list-length-pps / no-multi-pass-opt-rps / scenecut-bias=0.05 / no-opt-cu-delta-qp / no-aq-motion / no-hdr / no-hdr-opt / no-dhdr10-opt / no-idr-recovery-sei / analysis-reuse-level=5 / scale-factor=0 / refine-intra=0 / refine-inter=0 / refine-mv=1 / refine-ctu-distortion=0 / no-limit-sao / ctu-info=0 / no-lowpass-dct / refine-analysis-type=0 / copy-pic=1 / max-ausize-factor=1.0 / no-dynamic-refine / no-single-sei / no-hevc-aq / no-svt / no-field / qp-adaptation-range=1.00
Language                                 : English
Default                                  : Yes
Forced                                   : No
Color range                              : Limited
Color primaries                          : BT.709
Transfer characteristics                 : BT.709
Matrix coefficients                      : BT.709

Audio #1
ID                                       : 2
Format                                   : AC-3
Format/Info                              : Audio Coding 3
Commercial name                          : Dolby Digital
Codec ID                                 : A_AC3
Duration                                 : 2 h 1 min
Bit rate mode                            : Constant
Bit rate                                 : 448 kb/s
Channel(s)                               : 6 channels
Channel layout                           : L R C LFE Ls Rs
Sampling rate                            : 48.0 kHz
Frame rate                               : 31.250 FPS (1536 SPF)
Compression mode                         : Lossy
Stream size                              : 388 MiB (4%)
Title                                    : / 5.1 Ch / 448 kbps / ПД / DVD / Студія LeDoyen
Language                                 : Ukrainian
Service kind                             : Complete Main
Default                                  : Yes
Forced                                   : Yes

Audio #2
ID                                       : 3
Format                                   :
Format/Info                              : Digital Theater Systems
Codec ID                                 : A_DTS
Duration                                 : 2 h 1 min
Bit rate mode                            : Constant
Bit rate                                 : 1 510 kb/s
Channel(s)                               : 6 channels
Channel layout                           : C L R Ls Rs LFE
Sampling rate                            : 48.0 kHz
Frame rate                               : 93.750 FPS (512 SPF)
Bit depth                                : 24 bits
Compression mode                         : Lossy
Stream size                              : 1.28 GiB (13%)
Title                                    : / 5.1 Ch / 1509 kbps / Original
Language                                 : English
Default                                  : No
Forced                                   : No

Text #1
ID                                       : 4
Format                                   : UTF-8
Codec ID                                 : S_TEXT/UTF8
Codec ID/Info                            : UTF-8 Plain Text
Duration                                 : 1 h 55 min
Bit rate                                 : 117 b/s
Count of elements                        : 1855
Stream size                              : 99.5 KiB (0%)
Title                                    : Forced
Language                                 : Ukrainian
Default                                  : Yes
Forced                                   : Yes

Text #2
ID                                       : 5
Format                                   : UTF-8
Codec ID                                 : S_TEXT/UTF8
Codec ID/Info                            : UTF-8 Plain Text
Duration                                 : 1 h 55 min
Bit rate                                 : 22 b/s
Count of elements                        : 305
Stream size                              : 19.1 KiB (0%)
Title                                    : Full
Language                                 : Ukrainian
Default                                  : No
Forced                                   : No

Text #3
ID                                       : 6
Format                                   : UTF-8
Codec ID                                 : S_TEXT/UTF8
Codec ID/Info                            : UTF-8 Plain Text
Duration                                 : 1 h 52 min
Bit rate                                 : 80 b/s
Count of elements                        : 1782
Stream size                              : 66.7 KiB (0%)
Title                                    : Full
Language                                 : English
Default                                  : No
Forced                                   : No

Menu
00:00:00.000                             : :Commercials (Spoof)
00:03:58.154                             : :Openings
00:10:17.533                             : :The Story
00:15:46.779                             : :On Location
00:20:44.660                             : :Not the Set
00:28:43.179                             : :Drop Them in the Shit
00:35:07.563                             : :You Are My Hero, Sir
00:41:16.348                             : :Plotting it Out
00:47:16.124                             : :Need a Jelly Bean!
00:50:50.964                             : :Where Are We?
00:55:45.508                             : :Tracing the Map
00:59:31.234                             : :On His Own
01:03:47.198                             : :Captured!
01:10:31.852                             : :The Black Tower
01:12:59.416                             : :Recreating
01:16:54.610                             : :Tracking
01:21:29.134                             : :Award Winning
01:25:42.637                             : :The Stars Above
01:28:59.792                             : :The Rescue
01:34:41.342                             : :Not According to Plan
01:38:44.251                             : :Demolition
01:45:07.551                             : :Mistakes
01:51:14.209                             : :The Award Goes To...
01:52:57.353                             : :End Credits
Світлини




Джерело: &
Особиста оцінка: 0 - не дивився


 Трекер:    Зареєстрований   

Завантажити / скачати фільм українською



відео для новачків



 Зареєстрований:   2020-04-18 23:42
 Розмір:   10 GB 
 Оцінка фільму:   10/10 (Голосів: 6)
   
Інші релізи
   Грім у тропіках [Розширена версія] / Tropic Thunder [Unrated Director's Cut] (2008) 1080p Ukr/Eng | Sub Ukr/Eng antik_2008  5 / 1   13.34 GB   2020-02-04 14:56 
   Грім у тропіках [Розширена версія] / Tropic Thunder [Unrated Director's Cut] (2008) 720p Ukr/Eng | Sub Ukr/Eng antik_2008  4 / 0   6.83 GB   2020-02-04 14:25 
   Грім у тропіках [Розширена версія] / Tropic Thunder [Unrated Director's Cut] (2008) Remux 1080p Ukr/Eng | Sub Ukr/Eng MakRA  5 / 0   24.55 GB   2020-02-04 12:34 
   Грім у тропіках [Розширена версія] / Tropic Thunder [Unrated Director's Cut] (2008) AVC Ukr/Eng | Sub Ukr/Eng staf777  14 / 0   3.34 GB   2018-11-19 23:12 
   Грім у тропіках [Розширена версія] / Tropic Thunder [Unrated Director's Cut] (2008) Demrandir  3 / 0   1.91 GB   2018-11-19 16:40 
   Грім у тропіках [Розширена версія] / Tropic Thunder [Unrated Director's Cut] (2008) [5.1 ] Український дубляж + вставки оригіналу Demrandir  1 / 0   388 MB   2018-11-19 16:25 
   Грім у тропіках / Tropic thunder (2008) patriot2305  1 / 0   1.45 GB   2015-04-28 19:48 
   Грім у тропіках / Tropic Thunder (2008) 720p Ukr/Eng | Sub Ukr/Eng Mr Yuran  5 / 0   4.91 GB   2014-03-29 15:42 
   Грім у тропіках / Tropic thunder (2008) Ukr/Eng | Sub Ukr/Eng aalleexx85  8 / 1   2.19 GB   2011-08-19 09:46 
omm 
Відео Гуртом - фільмокрай
Відео Гуртом - фільмокрай


З нами з: 12.06.12
Востаннє: 27.09.20
Повідомлень: 2422

2020-04-19 13:27  
Крута пародія з безліччю шикарних епізодів.
Роберт Дауні, Том Круз - просто неймовірні в своїх образах.
Рекомендую

toloka_alex_2013 
Новенький


З нами з: 06.12.13
Востаннє: 25.09.20
Повідомлень: 16

2020-04-20 12:56  
Дуже багато моментів із відсутнім перекладом за чого псується враження від перегляду так як потрібно то слухати то читати субтитри
Ваш часовий пояс: GMT + 2 Години

Нова тема   Відповісти