Парк Юрського періоду [Реставрація] / Jurassic Park [Remastered] (1993) 5xUkr/Eng | Sub Eng

Нові коментарі

Нова тема   Відповісти
Останній раз роздавалося 21jumpstreet (2021-03-01)
Автор Повідомлення
21jumpstreet 
VIP


З нами з: 03.07.12
Востаннє: 02.03.21
Повідомлень: 1711

2020-04-18 08:25  
Парк Юрського періоду [Реставрація] / Jurassic Park [Remastered] (1993) 5xUkr/Eng | Sub Eng


Парк Юрського періоду [Реставрація] / Jurassic Park [Remastered] (1993) 5xUkr/Eng | Sub Eng


Жанр: пригодницький, фантастика, сімейний, трилер
Країна: США



Кінокомпанія: Universal Pictures
Режисер: Стівен Спілберг / Steven Spielberg
Актори: Сем Нілл /Sam Neill/, Лора Дерн /Laura Dern/, Річард Еттенборо /Richard Attenborough/, Джефф Голдблюм /Jeff Goldblum/, Боб Пек /Bob Peck/, Мартін Ферреро /Martin Ferrero

Сюжет:
Джон Хаммонд, американський мільйонер, будує неймовірний атракціон. Завдяки грошам, а також зусиллям генетиків, він створив "Парк Юрського періоду", де будуть блукати справжнісінькі динозаври! В якості тестової перевірки, він запрошує туди своїх онуків і декількох вчених. Але, радість нового наукового відкриття та подорожі по парку перекриває новина про те, що деякі динозаври вибралися зі своїх клітин, що загрожує небезпекою не тільки для персоналу, але і гостей.


Тривалість: 02:06:42
Якість:
Відео:
кодек:
розмір кадру: 704 х 384
бітрейт: 2001 кб/с

Аудіо # 1:
мова: українська
переклад: багатоголосий закадровий
кодек: 2.0
бітрейт: 192 кб/с
Інформація про озвучення:
Ролі озвучили: Владислав Пупков, Олександр Шевчук, Наталія Задніпровська та один чоловічий (прохання розпізнати)
Аудіо # 2:
мова: українська
переклад: багатоголосий закадровий
кодек: 2.0
бітрейт: 192 кб/с
Інформація про озвучення:
Ролі озвучили: Владислав Пупков, Анатолій Зіновенко, Юрій Кудрявець та Лідія Муращенко
Аудіо # 3:
мова: українська
переклад: двоголосий закадровий (записано з якісного джерела з каналу 2+2)
кодек: 2.0
бітрейт: 192 кб/с
Інформація про озвучення:
Переклад: Ганни Ведмідь
Літературний редактор: Ольга Чернілевська
Звукорежисер: Олена Мойжес
Режисер: Богдан Підгірний
Ролі озвучили: Лідія Муращенко і Олег Лепенець
Аудіо # 4:
мова: українська
переклад: багатоголосий закадровий | VHS
кодек: 2.0
бітрейт: 192 кб/с
Інформація про озвучення:
Ролі озвучили: Владислав Пупков, Олесь Гімбаржевський, Олег Лепенець та Ніна Касторф
Аудіо # 5:
мова: українська
переклад: двоголосий закадровий
кодек: 2.0
бітрейт: 192 кб/с
Інформація про озвучення:
Ролі озвучили: Олег Лепенець та Людмила Ардельян
Аудіо # 6: (окремо)
мова: англійська
переклад: оригінал
кодек: 5.1
бітрейт: 448 кб/с

Субтитри #1:
мова: українська
тип: програмні (м'які)
формат: *.srt

Субтитри #2: (full)
мова: англійська
тип: програмні (м'які)
формат: *.srt
Скріншоти



Info
C:\Users\Admin\Downloads\Jurassic Park (1993) [Remastered] [5xUkr] [Hurtom]\Jurassic park (1993) [Remastered] [5xUkr] [Hurtom].avi
General
Complete name : C:\Users\Admin\Downloads\Jurassic Park (1993) [Remastered] [5xUkr] [Hurtom]\Jurassic park (1993) [Remastered] [5xUkr] [Hurtom].avi
Format : AVI
Format/Info : Audio Video Interleave
Format profile : OpenDML
File size : 2.65 GiB
Duration : 2 h 6 min
Overall bit rate : 2 994 kb/s
Writing application : VirtualDubMod 1.5.10.2 (build 2540/release)
Writing library : VirtualDubMod build 2540/release
Video #0
ID : 0
Format : MPEG-4 Visual
Format profile : Advanced [email protected]
Format settings, BVOP : 2
Format settings, QPel : No
Format settings, GMC : No warppoints
Format settings, Matrix : Custom
Codec ID :
Codec ID/Hint :
Duration : 2 h 6 min
Bit rate : 2 001 kb/s
Width : 720 pixels
Height : 384 pixels
Display aspect ratio : 1.85:1
Frame rate : 23.976 (23976/1000) FPS
Color space : YUV
Chroma subsampling : 4:2:0
Bit depth : 8 bits
Scan type : Progressive
Compression mode : Lossy
Bits/(Pixel*Frame) : 0.302
Stream size : 1.77 GiB (67%)
Writing library : 73
Audio #1
ID : 1
Format : AC-3
Format/Info : Audio Coding 3
Mode extension : CM (complete main)
Format settings, Endianness : Big
Codec ID : 2000
Duration : 2 h 6 min
Bit rate mode : Constant
Bit rate : 192 kb/s
Channel(s) : 2 channels
Channel positions : Front: L R
Sampling rate : 48.0 kHz
Frame rate : 31.250 FPS (1536 spf)
Compression mode : Lossy
Stream size : 174 MiB (6%)
Alignment : Split accross interleaves
Interleave, duration : 42 ms (1.00 video frame)
Interleave, preload duration : 500 ms
Audio #2
ID : 2
Format : AC-3
Format/Info : Audio Coding 3
Mode extension : CM (complete main)
Format settings, Endianness : Big
Codec ID : 2000
Duration : 2 h 6 min
Bit rate mode : Constant
Bit rate : 192 kb/s
Channel(s) : 2 channels
Channel positions : Front: L R
Sampling rate : 48.0 kHz
Frame rate : 31.250 FPS (1536 spf)
Compression mode : Lossy
Stream size : 174 MiB (6%)
Alignment : Split accross interleaves
Interleave, duration : 42 ms (1.00 video frame)
Interleave, preload duration : 500 ms
Audio #3
ID : 3
Format : AC-3
Format/Info : Audio Coding 3
Mode extension : CM (complete main)
Format settings, Endianness : Big
Codec ID : 2000
Duration : 2 h 6 min
Bit rate mode : Constant
Bit rate : 192 kb/s
Channel(s) : 2 channels
Channel positions : Front: L R
Sampling rate : 48.0 kHz
Frame rate : 31.250 FPS (1536 spf)
Compression mode : Lossy
Stream size : 174 MiB (6%)
Alignment : Split accross interleaves
Interleave, duration : 42 ms (1.00 video frame)
Interleave, preload duration : 500 ms
Audio #4
ID : 4
Format : AC-3
Format/Info : Audio Coding 3
Mode extension : CM (complete main)
Format settings, Endianness : Big
Codec ID : 2000
Duration : 2 h 6 min
Bit rate mode : Constant
Bit rate : 192 kb/s
Channel(s) : 2 channels
Channel positions : Front: L R
Sampling rate : 48.0 kHz
Frame rate : 31.250 FPS (1536 spf)
Compression mode : Lossy
Stream size : 174 MiB (6%)
Alignment : Split accross interleaves
Interleave, duration : 42 ms (1.00 video frame)
Interleave, preload duration : 500 ms
Audio #5
ID : 5
Format : AC-3
Format/Info : Audio Coding 3
Mode extension : CM (complete main)
Format settings, Endianness : Big
Codec ID : 2000
Duration : 2 h 6 min
Bit rate mode : Constant
Bit rate : 192 kb/s
Channel(s) : 2 channels
Channel positions : Front: L R
Sampling rate : 48.0 kHz
Frame rate : 31.250 FPS (1536 spf)
Compression mode : Lossy
Delay relative to video : 2 s 330 ms
Stream size : 174 MiB (6%)
Alignment : Split accross interleaves
Interleave, duration : 42 ms (1.00 video frame)
Interleave, preload duration : 500 ms

Величезна та найщиріша подяка:
_oles, boltendahl, xslim, MAKAPOHHIK, NemoInFire, РОМЕО, Sando7, ProgBassing, Arsenfpu, Drommer, Sando7, Anonymous, leicheman

За запис з НЛО та 2+2 - xSlim та Bohdan237
За зведення та допомогу: -_-B_Е_N_D_E_R-_-


Срібний реліз (на рейтинг впливає 50% завантаженого)
 Трекер:    Зареєстрований   

Завантажити / скачати фільм українською



відео для новачків



 Зареєстрований:   2021-01-31 22:50
 Розмір:   3.05 GB 
 Оцінка фільму:   9.9/10 (Голосів: 19)
   
leicheman 
Відео Гуртом - фільмокрай
Відео Гуртом - фільмокрай


З нами з: 03.07.14
Востаннє: 02.03.21
Повідомлень: 5930

2020-04-18 17:54  
може поки ще не роздали, додасте укр. субтитри?
21jumpstreet 
VIP


З нами з: 03.07.12
Востаннє: 02.03.21
Повідомлень: 1711

2020-04-18 17:58  
leicheman
Додам

HarakternyK77 
Свій


З нами з: 03.12.09
Востаннє: 28.02.21
Повідомлень: 104

2020-04-18 18:06  
Коли буде роздача?
piznajko 
Відео Гуртом - субтитрування
Відео Гуртом - субтитрування


З нами з: 24.02.09
Востаннє: 17.11.20
Повідомлень: 2196

2020-04-19 04:08  
Дезь закрався зайвий код [b] у описі релізу, бо увесь текст збільшений та жирний
21jumpstreet 
VIP


З нами з: 03.07.12
Востаннє: 02.03.21
Повідомлень: 1711

2020-04-19 10:12  
piznajko
не можу знайти де саме

Oleg Titov 
Новенький


З нами з: 14.01.12
Востаннє: 28.02.21
Повідомлень: 8

2021-01-24 13:07  
Дякую!
21jumpstreet 
VIP


З нами з: 03.07.12
Востаннє: 02.03.21
Повідомлень: 1711

2021-01-31 19:31  
Реліз трохи затримується!
igor911 
Модератор відео


З нами з: 18.01.08
Востаннє: 02.03.21
Повідомлень: 15583

2021-01-31 19:33  
21jumpstreet написано:
Зареєстрований:   2021-01-31 19:29

21jumpstreet написано:
| Sub Eng

Цитата:
leicheman: - додасте українські субтитри?
21jumpstreet: -Додам


додайте українські субтитри https://toloka.to/t109850#1174446

21jumpstreet 
VIP


З нами з: 03.07.12
Востаннє: 02.03.21
Повідомлень: 1711

2021-01-31 19:36  
igor911
де вони?

igor911 
Модератор відео


З нами з: 18.01.08
Востаннє: 02.03.21
Повідомлень: 15583

2021-01-31 19:39  
21jumpstreet
скинув у приват

21jumpstreet 
VIP


З нами з: 03.07.12
Востаннє: 02.03.21
Повідомлень: 1711

2021-01-31 22:51  
Торент файл оновлено! Додано озвучення від волі та укр саби з Netflix!
Лишився ще укр дубляж! Було б круто, якби по тб показали! Як буде дубляж, реліз буде оновлено!

Nahalist 
VIP


З нами з: 12.12.13
Востаннє: 01.03.21
Повідомлень: 340

2021-02-06 23:19  
Дякую, з радістю гляну. А ще скажіть - під AVC ріпи звук з CINE+ підійде??
Luzohid 
Свій


З нами з: 14.09.15
Востаннє: 22.02.21
Повідомлень: 104

2021-02-06 23:36  
Nahalist написано:
Дякую, з радістю гляну. А ще скажіть - під AVC ріпи звук з CINE+ підійде??

вже ж прикріплена доріжка до avc - ОСЬ. Вам ще куди треба?

R.V.V. 
Поважний учасник


З нами з: 09.03.19
Востаннє: 24.02.21
Повідомлень: 232

2021-02-21 13:02  
Текст від НЛО TV ідентичний "плюсам".

На rutracker є 3D в 1080p, анагліф-RAV, red-cyan. То, мабуть, найкраще 3D! Окуляри red-cyan / червоно-сині. Доріжки до нього без проблем, звідси, підходять три: "плюси", інтер, НЛО TV (текст від плюсів).

Не пожалієте!

Додано через 5 хвилин 24 секунди:

Дуже вдячний релізеру за реставрацію! 3D давно мав, а тепер під нього підігнали наш звук.
Найкращий фільм! Найкраще 3D! Наш звук (три підігнані дороги)!

ДЯКУЮ!

Ваш часовий пояс: GMT + 2 Години

Нова тема   Відповісти