Парк Юрського періоду [Реставрація] / Jurassic Park [Remastered] (1993) 4xUkr/Eng | Sub Eng

Нові коментарі

Нова тема   Відповісти
Автор Повідомлення
21jumpstreet 
VIP


З нами з: 03.07.12
Востаннє: 03.07.20
Повідомлень: 1091

2020-04-18 09:25  
Парк Юрського періоду [Реставрація] / Jurassic Park [Remastered] (1993) 4xUkr/Eng | Sub Eng


Парк Юрського періоду [Реставрація] / Jurassic Park [Remastered] (1993) 4xUkr/Eng | Sub Eng


Жанр: пригодницький, фантастика, сімейний, трилер
Країна: США



Кінокомпанія: Universal Pictures
Режисер: Стівен Спілберг / Steven Spielberg
Актори: Сем Нілл /Sam Neill/, Лора Дерн /Laura Dern/, Річард Еттенборо /Richard Attenborough/, Джефф Голдблюм /Jeff Goldblum/, Боб Пек /Bob Peck/, Мартін Ферреро /Martin Ferrero

Сюжет:
Джон Хаммонд, американський мільйонер, будує неймовірний атракціон. Завдяки грошам, а також зусиллям генетиків, він створив "Парк Юрського періоду", де будуть блукати справжнісінькі динозаври! В якості тестової перевірки, він запрошує туди своїх онуків і декількох вчених. Але, радість нового наукового відкриття та подорожі по парку перекриває новина про те, що деякі динозаври вибралися зі своїх клітин, що загрожує небезпекою не тільки для персоналу, але і гостей.


Тривалість: 02:06:42
Якість:
Відео:
кодек:
розмір кадру: 704 х 384
бітрейт: 2001 кб/с

Аудіо # 1:
мова: українська
переклад: багатоголосий закадровий
кодек: 2.0
бітрейт: 192 кб/с
Інформація про озвучення:
Ролі озвучили: Владислав Пупков, Анатолій Зіновенко, Юрій Кудрявець та Лідія Муращенко
Аудіо # 2:
мова: українська
переклад: двоголосий закадровий (записано з якісного джерела з каналу 2+2)
кодек: 2.0
бітрейт: 192 кб/с
Інформація про озвучення:
Переклад: Ганни Ведмідь
Літературний редактор: Ольга Чернілевська
Звукорежисер: Олена Мойжес
Режисер: Богдан Підгірний
Ролі озвучили: Лідія Муращенко і Олег Лепенець
Аудіо # 3:
мова: українська
переклад: багатоголосий закадровий | VHS
кодек: 2.0
бітрейт: 192 кб/с
Інформація про озвучення:
Ролі озвучили: Владислав Пупков, Олесь Гімбаржевський, Олег Лепенець та Ніна Касторф
Аудіо # 4:
мова: українська
переклад: двоголосий закадровий
кодек: 2.0
бітрейт: 192 кб/с
Інформація про озвучення:
Ролі озвучили: Олег Лепенець та Людмила Ардельян
Аудіо # 5: (окремо)
мова: англійська
переклад: оригінал
кодек: 5.1
бітрейт: 448 кб/с

Субтитри:
мова: англійська | повні
тип: програмні (м'які)
формат: *.srt
Скріншоти



Info
C:\Jurassic park (1993) [Remastered] [4xUkr] [Hurtom]\Jurassic park (1993) [Remastered] [4xUkr] [Hurtom].avi
General
Complete name : C:\Jurassic park (1993) [Remastered] [4xUkr] [Hurtom]\Jurassic park (1993) [Remastered] [4xUkr] [Hurtom].avi
Format : AVI
Format/Info : Audio Video Interleave
Format profile : OpenDML
File size : 2.48 GiB
Duration : 2 h 6 min
Overall bit rate : 2 797 kb/s
Writing application : VirtualDubMod 1.5.10.2 (build 2540/release)
Writing library : VirtualDubMod build 2540/release
Video #0
ID : 0
Format : MPEG-4 Visual
Format profile : Advanced [email protected]
Format settings, BVOP : 2
Format settings, QPel : No
Format settings, GMC : No warppoints
Format settings, Matrix : Custom
Codec ID :
Codec ID/Hint :
Duration : 2 h 6 min
Bit rate : 2 001 kb/s
Width : 720 pixels
Height : 384 pixels
Display aspect ratio : 1.85:1
Frame rate : 23.976 (23976/1000) FPS
Color space : YUV
Chroma subsampling : 4:2:0
Bit depth : 8 bits
Scan type : Progressive
Compression mode : Lossy
Bits/(Pixel*Frame) : 0.302
Stream size : 1.77 GiB (72%)
Writing library : 73
Audio #1
ID : 1
Format : AC-3
Format/Info : Audio Coding 3
Mode extension : CM (complete main)
Format settings, Endianness : Big
Codec ID : 2000
Duration : 2 h 6 min
Bit rate mode : Constant
Bit rate : 192 kb/s
Channel(s) : 2 channels
Channel positions : Front: L R
Sampling rate : 48.0 kHz
Frame rate : 31.250 FPS (1536 spf)
Compression mode : Lossy
Stream size : 174 MiB (7%)
Alignment : Split accross interleaves
Interleave, duration : 42 ms (1.00 video frame)
Interleave, preload duration : 500 ms
Audio #2
ID : 2
Format : AC-3
Format/Info : Audio Coding 3
Mode extension : CM (complete main)
Format settings, Endianness : Big
Codec ID : 2000
Duration : 2 h 6 min
Bit rate mode : Constant
Bit rate : 192 kb/s
Channel(s) : 2 channels
Channel positions : Front: L R
Sampling rate : 48.0 kHz
Frame rate : 31.250 FPS (1536 spf)
Compression mode : Lossy
Stream size : 174 MiB (7%)
Alignment : Split accross interleaves
Interleave, duration : 42 ms (1.00 video frame)
Interleave, preload duration : 500 ms
Audio #3
ID : 3
Format : AC-3
Format/Info : Audio Coding 3
Mode extension : CM (complete main)
Format settings, Endianness : Big
Codec ID : 2000
Duration : 2 h 6 min
Bit rate mode : Constant
Bit rate : 192 kb/s
Channel(s) : 2 channels
Channel positions : Front: L R
Sampling rate : 48.0 kHz
Frame rate : 31.250 FPS (1536 spf)
Compression mode : Lossy
Stream size : 174 MiB (7%)
Alignment : Split accross interleaves
Interleave, duration : 42 ms (1.00 video frame)
Interleave, preload duration : 500 ms
Audio #4
ID : 4
Format : AC-3
Format/Info : Audio Coding 3
Mode extension : CM (complete main)
Format settings, Endianness : Big
Codec ID : 2000
Duration : 2 h 6 min
Bit rate mode : Constant
Bit rate : 192 kb/s
Channel(s) : 2 channels
Channel positions : Front: L R
Sampling rate : 48.0 kHz
Frame rate : 31.250 FPS (1536 spf)
Compression mode : Lossy
Delay relative to video : 2 s 330 ms
Stream size : 174 MiB (7%)
Alignment : Split accross interleaves
Interleave, duration : 42 ms (1.00 video frame)
Interleave, preload duration : 500 ms

Величезна та найщиріша подяка:
_oles, boltendahl, xslim, MAKAPOHHIK, NemoInFire, РОМЕО, Sando7, ProgBassing, Arsenfpu

За запис з НЛО та 2+2 - xSlim та Bohdan237
За зведення та допомогу: -_-B_Е_N_D_E_R-_-


Срібний реліз (на рейтинг впливає 50% завантаженого)
 Трекер:    Зареєстрований   

Завантажити / скачати фільм українською



відео для новачків



 Зареєстрований:   2020-04-18 18:46
 Розмір:   2.87 GB 
 Оцінка фільму:   10/10 (Голосів: 9)
   
leicheman 
Відео Гуртом - фільмокрай
Відео Гуртом - фільмокрай


З нами з: 03.07.14
Востаннє: 03.07.20
Повідомлень: 5089

2020-04-18 18:54  
може поки ще не роздали, додасте укр. субтитри?
21jumpstreet 
VIP


З нами з: 03.07.12
Востаннє: 03.07.20
Повідомлень: 1091

2020-04-18 18:58  
leicheman
Додам

HarakternyK77 
Свій


З нами з: 03.12.09
Востаннє: 02.07.20
Повідомлень: 94

2020-04-18 19:06  
Коли буде роздача?
piznajko 
Відео Гуртом - субтитрування
Відео Гуртом - субтитрування


З нами з: 24.02.09
Востаннє: 29.06.20
Повідомлень: 2198

2020-04-19 05:08  
Дезь закрався зайвий код [b] у описі релізу, бо увесь текст збільшений та жирний
21jumpstreet 
VIP


З нами з: 03.07.12
Востаннє: 03.07.20
Повідомлень: 1091

2020-04-19 11:12  
piznajko
не можу знайти де саме

Ваш часовий пояс: GMT + 2 Години

Нова тема   Відповісти