Кравець з Панами / The Tailor of Panama (2001) 720p Ukr/Eng | Sub Eng

Нові коментарі

Нова тема   Відповісти
Автор Повідомлення
Anonymous 







2020-04-18 08:28  
Кравець з Панами / The Tailor of Panama (2001) 720p Ukr/Eng | Sub Eng

Кравець з Панами / The Tailor of Panama (2001) 720p Ukr/Eng | Sub Eng


Жанр: трилер, драма
Країна: США, Ірландія



Кінокомпанія: Columbia Pictures
Режисер: Джон Бурмен / John Boorman
Актори: Пірс Броснан, Джеффрі Раш, Джеймі Лі Кертіс, Леонор Варела, Брендан Глісон, Кетрін МакКормак

Сюжет:
Cекретний агент британської розвідки Енді Оснард, проштрафився багато в чому і отримує останнє, найнудніше завдання - вирушити у Панаму і стежити за Каналом, щоб він не потрапив "не в ті руки". Вже у літаку він виділив з усього списку, проживаючих у Панамі англійців, для себя помічника, містера Херрі Пендела, найпрестижнішого місцевого швеця. А що треба зробити, щоб повернули колишні цікаву роботу і відповідні привілеї, та і грошей трохи привласнити? Треба розкрити велику змову. У даному випадку змова з захоплення Каналу борцями Супротиву...


Тривалість: 01:49:37
Якість: 720p
Відео:
кодек:
розмір кадру: 1280х544
бітрейт: 5066 кб/с

Аудіо # 1:
мова: українська
переклад: багатоголосий закадровий
кодек: 5.1
бітрейт: 448 кб/с

Аудіо # 2:
мова: англійська
переклад: оригінал
кодек: 5.1
бітрейт: 640 кб/с

Субтитри:
мова: англійська
тип: програмні (м'які)
формат: *.srt
Info
General
Unique ID : 185393234261696276975614777926289320758 (0x8B7970299FE0E24283FB62019295EB36)
Complete name : E:\Toloka\2020\The Tailor of Panama (2001) 720p.
Format :
Format version : Version 4
File size : 4.71 GiB
Duration : 1 h 49 min
Overall bit rate : 6 157 kb/s
Encoded date : UTC 2020-04-18 05:14:03
Writing application : v6.1.0 ('Old Devil') built on Mar 4 2013 09:10:42
Writing library : libebml v1.3.0 + v1.4.0

Video
ID : 1
Format : AVC
Format/Info : Advanced Video Codec
Format profile : [email protected]
Format settings : CABAC / 8 Ref Frames
Format settings, CABAC : Yes
Format settings, RefFrames : 8 frames
Codec ID : V_MPEG4/ISO/AVC
Duration : 1 h 49 min
Bit rate : 5 066 kb/s
Width : 1 280 pixels
Height : 544 pixels
Display aspect ratio : 2.35:1
Frame rate mode : Constant
Frame rate : 23.976 (24000/1001) FPS
Color space : YUV
Chroma subsampling : 4:2:0
Bit depth : 8 bits
Scan type : Progressive
Bits/(Pixel*Frame) : 0.303
Stream size : 3.79 GiB (80%)
Writing library : core 56 svn-667C
Encoding settings : cabac=1 / ref=5 / deblock=1:-3:-2 / analyse=0x3:0x133 / me=umh / subme=7 / brdo=1 / mixed_ref=1 / me_range=16 / chroma_me=1 / trellis=1 / 8x8dct=1 / cqm=2 / deadzone=21,11 / chroma_qp_offset=0 / threads=3 / nr=0 / decimate=1 / mbaff=0 / bframes=3 / b_pyramid=1 / b_adapt=1 / b_bias=0 / direct=3 / wpredb=1 / bime=1 / keyint=250 / keyint_min=25 / scenecut=40(pre) / rc=2pass / bitrate=5066 / ratetol=1.0 / rceq='blurCplx^(1-qComp)' / qcomp=0.60 / qpmin=10 / qpmax=51 / qpstep=4 / cplxblur=20.0 / qblur=0.5 / ip_ratio=1.40 / pb_ratio=1.30 / aq=1:0.4:15.0
Language : English
Default : Yes
Forced : No

Audio #1
ID : 2
Format : AC-3
Format/Info : Audio Coding 3
Commercial name : Dolby Digital
Codec ID : A_AC3
Duration : 1 h 49 min
Bit rate mode : Constant
Bit rate : 448 kb/s
Channel(s) : 6 channels
Channel layout : L R C LFE Ls Rs
Sampling rate : 48.0 kHz
Frame rate : 31.250 FPS (1536 SPF)
Bit depth : 16 bits
Compression mode : Lossy
Stream size : 351 MiB (7%)
Title : Ukr
Language : Ukrainian
Service kind : Complete Main
Default : Yes
Forced : Yes

Audio #2
ID : 3
Format : AC-3
Format/Info : Audio Coding 3
Commercial name : Dolby Digital
Codec ID : A_AC3
Duration : 1 h 49 min
Bit rate mode : Constant
Bit rate : 640 kb/s
Channel(s) : 5 channels
Channel layout : L R C Ls Rs
Sampling rate : 48.0 kHz
Frame rate : 31.250 FPS (1536 SPF)
Bit depth : 16 bits
Compression mode : Lossy
Stream size : 502 MiB (10%)
Title : Eng
Language : English
Service kind : Complete Main
Default : No
Forced : No

Text
ID : 4
Format : UTF-8
Codec ID : S_TEXT/UTF8
Codec ID/Info : UTF-8 Plain Text
Title : Eng
Language : English
Default : Yes
Forced : No
Скріншоти







За доріжку подяка п.: Drakon87, lovemaker
Особиста подяка пану denixx за надану матеріальну допомогу на підтримку цього і майбутніх релізів.
Джерело:


Срібний реліз (на рейтинг впливає 50% завантаженого)
 Трекер:    Зареєстрований   

Завантажити / скачати фільм українською



відео для новачків



 Зареєстрований:   2020-04-18 08:28
 Розмір:   4.71 GB 
 Оцінка фільму:   7.8/10 (Голосів: 4)
   
Інші релізи
   Кравець з Панами / The Tailor of Panama (2001) lovemaker  3 / 0   1.83 GB   2009-09-13 15:23 
Ваш часовий пояс: GMT + 2 Години

Нова тема   Відповісти