Сіссі: трилогія / Sissi: Trilogi (1955, 1956, 1957) 2xUkr/Ger

Нові коментарі

Нова тема   Відповісти
Останній раз роздавалося dramogorn (2020-07-04)
Автор Повідомлення
21jumpstreet 
VIP


З нами з: 03.07.12
Востаннє: 04.07.20
Повідомлень: 1091

2020-04-17 21:15  
Сіссі: трилогія / Sissi: Trilogi (1955, 1956, 1957) 2xUkr/Ger


Сіссі: трилогія / Sissi: Trilogi (1955, 1956, 1957) 2xUkr/Ger
Сіссі / Sissi (1955) 2xUkr/Ger

Сіссі / Sissi (1955) 2xUkr/Ger


Сіссі: трилогія / Sissi: Trilogi (1955, 1956, 1957) 2xUkr/Ger

Жанр: історичний, мелодрама, біографічний, романтичний
Країна: Австрія



Кінокомпанія: Erma-Film
Режисер: Ернст Марішка
Актори: Ромі Шнайдер, Карлхайнц Бьом, Магда Шнайдер, Ута Франц та інші

Сюжет:
Юна Сіссі — дочка герцога Макса Баварського — проста скромна дівчина. Вона уникає галасливих світських розваг, бігає в лісі, доглядає за тваринами, насолоджується природою та мріє про кохання.
Випадково познайомивнися в лісі з привабливим молодим офіцером, вона відчуває, що зустріла чоловіка своєї мрії. Доречі і офіцер не на жарт захопився дівчиною, хоча і вважає її простою селянкою. Яким же було здивування обох, коли на балу йому представили молодшу дочку герцога Максиміліана, а їй — австрійського імператора Франца-Іосифа.
На жаль для закоханих, владна мати Франца-Іосифа, ерцгерцогиня Софі вже обрала дружину своєму синові — принцесу Хелену, старшу сестру Сіссі… Незважаючи ні на що, молодий імператор готовий вперше піти проти волі матері та оголосити Сіссі своєю нареченою…


Тривалість: 01:45:41
Якість:
Відео:
кодек:
розмір кадру: 704x400
бітрейт: 1770 кб/с

Аудіо # 1:
мова: українська
переклад: багатоголосий закадровий
кодек: 2.0
бітрейт: 192 кб/с

Аудіо # 2:
мова: українська
переклад: двоголосий закадровий
кодек: 2.0
бітрейт: 192 кб/с

Аудіо # 3: (окремо)
мова: німецька
переклад: оригінал
кодек: 2.0
бітрейт: 320 кб/с
Скріншоти



Info
C:\Sissi Trilogy (1955-1957) [Hurtom]\Sissi (1955) [2xukr] [Hurtom].avi
General
Complete name : C:\Sissi Trilogy (1955-1957) [Hurtom]\Sissi (1955) [2xukr] [Hurtom].avi
Format : AVI
Format/Info : Audio Video Interleave
File size : 1.60 GiB
Duration : 1 h 45 min
Overall bit rate : 2 168 kb/s
Writing application : VirtualDubMod 1.5.10.2 (build 2540/release)
Writing library : VirtualDubMod build 2540/release
Video #0
ID : 0
Format : MPEG-4 Visual
Format profile : Advanced [email protected]
Format settings, BVOP : 2
Format settings, QPel : No
Format settings, GMC : No warppoints
Format settings, Matrix : Custom
Codec ID :
Codec ID/Hint :
Duration : 1 h 45 min
Bit rate : 1 770 kb/s
Width : 704 pixels
Height : 400 pixels
Display aspect ratio : 16:9
Frame rate : 23.976 (23976/1000) FPS
Color space : YUV
Chroma subsampling : 4:2:0
Bit depth : 8 bits
Scan type : Progressive
Compression mode : Lossy
Bits/(Pixel*Frame) : 0.262
Stream size : 1.31 GiB (82%)
Writing library : 63
Audio #1
ID : 1
Format : AC-3
Format/Info : Audio Coding 3
Mode extension : CM (complete main)
Format settings, Endianness : Big
Codec ID : 2000
Duration : 1 h 45 min
Bit rate mode : Constant
Bit rate : 192 kb/s
Channel(s) : 2 channels
Channel positions : Front: L R
Sampling rate : 48.0 kHz
Frame rate : 31.250 FPS (1536 spf)
Compression mode : Lossy
Stream size : 145 MiB (9%)
Alignment : Split accross interleaves
Interleave, duration : 42 ms (1.00 video frame)
Interleave, preload duration : 500 ms
Audio #2
ID : 2
Format : AC-3
Format/Info : Audio Coding 3
Mode extension : CM (complete main)
Format settings, Endianness : Big
Codec ID : 2000
Duration : 1 h 45 min
Bit rate mode : Constant
Bit rate : 192 kb/s
Channel(s) : 2 channels
Channel positions : Front: L R
Sampling rate : 48.0 kHz
Frame rate : 31.250 FPS (1536 spf)
Compression mode : Lossy
Stream size : 145 MiB (9%)
Alignment : Split accross interleaves
Interleave, duration : 42 ms (1.00 video frame)
Interleave, preload duration : 500 ms
Сіссі - юність імператриці / Sissi - Die junge Kaiserin (1956) 2xUkr/Ger

Сіссі - юність імператриці / Sissi - Die junge Kaiserin (1956) 2xUkr/Ger


Сіссі: трилогія / Sissi: Trilogi (1955, 1956, 1957) 2xUkr/Ger


Жанр: історичний, мелодрама, біографічний, романтичний
Країна: Австрія



Кінокомпанія: Erma-Film
Режисер: Ернст Марішка
Актори: Ромі Шнайдер, Карлхайнц Бьом, Магда Шнайдер, Ута Франц та інші

Сюжет:
Після урочистого весілля у Відні, Єлизавета намагається поступово звикнути до свого нового становища імператриці. Але їй, після волі та просторів Баварії, важко дотримуватися безглуздих придворних церемоній, особливо, заборони на виховання власної дочки.
Люблячий її Франц-Іосиф в данному питанні схиляє голову перед традиціями та волею своєї властною матері. Засмучена та розгнівана Єлизавета тікає до батьківського дому,проте імператор умовляє її повернутися до палацу.
Щоб налагодити стосунки з ерцгерцогинею Софі, яка так безцеремонно втручається в особисте життя свого сина-імператора та його дружини, Сіссі починає поводитися як досвідчений дипломат…


Тривалість: 01:45:44
Якість:
Відео:
кодек:
розмір кадру: 704x400
бітрейт: 1769 кб/с

Аудіо # 1:
мова: українська
переклад: багатоголосий закадровий
кодек: 2.0
бітрейт: 192 кб/с

Аудіо # 2:
мова: українська
переклад: двоголосий закадровий
кодек: 2.0
бітрейт: 192 кб/с

Аудіо # 3: (окремо)
мова: німецька
переклад: оригінал
кодек: 2.0
бітрейт: 320 кб/с
Скріншоти



Info
C:\Sissi Trilogy (1955-1957) [Hurtom]\Sissi - Die junge Kaiserin (1956) [2xukr] [Hurtom].avi
General
Complete name : C:\Sissi Trilogy (1955-1957) [Hurtom]\Sissi - Die junge Kaiserin (1956) [2xukr] [Hurtom].avi
Format : AVI
Format/Info : Audio Video Interleave
File size : 1.60 GiB
Duration : 1 h 45 min
Overall bit rate : 2 168 kb/s
Writing application : VirtualDubMod 1.5.10.2 (build 2540/release)
Writing library : VirtualDubMod build 2540/release
Video #0
ID : 0
Format : MPEG-4 Visual
Format profile : Advanced [email protected]
Format settings, BVOP : 2
Format settings, QPel : No
Format settings, GMC : No warppoints
Format settings, Matrix : Custom
Codec ID :
Codec ID/Hint :
Duration : 1 h 45 min
Bit rate : 1 770 kb/s
Width : 704 pixels
Height : 400 pixels
Display aspect ratio : 16:9
Frame rate : 23.976 (23976/1000) FPS
Color space : YUV
Chroma subsampling : 4:2:0
Bit depth : 8 bits
Scan type : Progressive
Compression mode : Lossy
Bits/(Pixel*Frame) : 0.262
Stream size : 1.31 GiB (82%)
Writing library : 63
Audio #1
ID : 1
Format : AC-3
Format/Info : Audio Coding 3
Mode extension : CM (complete main)
Format settings, Endianness : Big
Codec ID : 2000
Duration : 1 h 45 min
Bit rate mode : Constant
Bit rate : 192 kb/s
Channel(s) : 2 channels
Channel positions : Front: L R
Sampling rate : 48.0 kHz
Frame rate : 31.250 FPS (1536 spf)
Compression mode : Lossy
Stream size : 145 MiB (9%)
Alignment : Split accross interleaves
Interleave, duration : 42 ms (1.00 video frame)
Interleave, preload duration : 500 ms
Audio #2
ID : 2
Format : AC-3
Format/Info : Audio Coding 3
Mode extension : CM (complete main)
Format settings, Endianness : Big
Codec ID : 2000
Duration : 1 h 45 min
Bit rate mode : Constant
Bit rate : 192 kb/s
Channel(s) : 2 channels
Channel positions : Front: L R
Sampling rate : 48.0 kHz
Frame rate : 31.250 FPS (1536 spf)
Compression mode : Lossy
Stream size : 145 MiB (9%)
Alignment : Split accross interleaves
Interleave, duration : 42 ms (1.00 video frame)
Interleave, preload duration : 500 ms
Сіссі - доленосні роки імператриці / Sissi - Schicksalsjahre einer Kaiserin (1957) 2xUkr/Ger

Сіссі - доленосні роки імператриці / Sissi - Schicksalsjahre einer Kaiserin (1957) 2xUkr/Ger


Сіссі: трилогія / Sissi: Trilogi (1955, 1956, 1957) 2xUkr/Ger


Жанр: історичний, мелодрама, біографічний, романтичний
Країна: Австрія



Кінокомпанія: Erma-Film
Режисер: Ернст Марішка
Актори: Ромі Шнайдер, Карлхайнц Бьом, Магда Шнайдер, Ута Франц та інші

Сюжет:
Єлизавета продовжує виховання дітей, займається державними справами та гідно протистоїть підступам своєї свекрухи. Коли вони разом з графом Андраші відїздять до Угорщини, щоб заспокоїти бунтівних дворян, ерцгерцогиня Софі розпускає чутки про їх роман.
Дипломатична місія успішно виконана, але важка хвороба змушує Єлизавету відправитися на лікування в Грецію. Заледве одужавши, вона їде назустріч Францу-Іосифу, щоб спростувати злі вигадки свекрухи та відвідати італійські володіння Австро-Угорщини.
Незважаючи на незадоволення астрійським пануванням, італійські вельможі, вражені шляхетністю Єлизавети,схиляють голови перед монаршим подружжям...


Тривалість: 01:48:41
Якість:
Відео:
кодек:
розмір кадру: 704x400
бітрейт: 1716 кб/с

Аудіо # 1:
мова: українська
переклад: багатоголосий закадровий
кодек: 2.0
бітрейт: 192 кб/с

Аудіо # 2:
мова: українська
переклад: двоголосий закадровий
кодек: 2.0
бітрейт: 192 кб/с

Аудіо # 3: (окремо)
мова: німецька
переклад: оригінал
кодек: 2.0
бітрейт: 320 кб/с
Скріншоти



Info
C:\Sissi Trilogy (1955-1957) [Hurtom]\Sissi - Schicksalsjahre einer Kaiserin (1957) [2xukr] [Hurtom].avi
General
Complete name : C:\Sissi Trilogy (1955-1957) [Hurtom]\Sissi - Schicksalsjahre einer Kaiserin (1957) [2xukr] [Hurtom].avi
Format : AVI
Format/Info : Audio Video Interleave
File size : 1.61 GiB
Duration : 1 h 48 min
Overall bit rate : 2 115 kb/s
Writing application : VirtualDubMod 1.5.10.2 (build 2540/release)
Writing library : VirtualDubMod build 2540/release
Video #0
ID : 0
Format : MPEG-4 Visual
Format profile : Advanced [email protected]
Format settings, BVOP : 2
Format settings, QPel : No
Format settings, GMC : No warppoints
Format settings, Matrix : Custom
Codec ID :
Codec ID/Hint :
Duration : 1 h 48 min
Bit rate : 1 717 kb/s
Width : 704 pixels
Height : 400 pixels
Display aspect ratio : 16:9
Frame rate : 23.976 (23976/1000) FPS
Color space : YUV
Chroma subsampling : 4:2:0
Bit depth : 8 bits
Scan type : Progressive
Compression mode : Lossy
Bits/(Pixel*Frame) : 0.254
Stream size : 1.30 GiB (81%)
Writing library : 63
Audio #1
ID : 1
Format : AC-3
Format/Info : Audio Coding 3
Mode extension : CM (complete main)
Format settings, Endianness : Big
Codec ID : 2000
Duration : 1 h 48 min
Bit rate mode : Constant
Bit rate : 192 kb/s
Channel(s) : 2 channels
Channel positions : Front: L R
Sampling rate : 48.0 kHz
Frame rate : 31.250 FPS (1536 spf)
Compression mode : Lossy
Stream size : 149 MiB (9%)
Alignment : Split accross interleaves
Interleave, duration : 42 ms (1.00 video frame)
Interleave, preload duration : 500 ms
Audio #2
ID : 2
Format : AC-3
Format/Info : Audio Coding 3
Mode extension : CM (complete main)
Format settings, Endianness : Big
Codec ID : 2000
Duration : 1 h 48 min
Bit rate mode : Constant
Bit rate : 192 kb/s
Channel(s) : 2 channels
Channel positions : Front: L R
Sampling rate : 48.0 kHz
Frame rate : 31.250 FPS (1536 spf)
Compression mode : Lossy
Stream size : 149 MiB (9%)
Alignment : Split accross interleaves
Interleave, duration : 42 ms (1.00 video frame)
Interleave, preload duration : 500 ms
Величезні та найщиріші подяки:
Запис звуку з ТБ: Інтер - xslim, Bohdan237, krigg070
1+1 - Tanat13
Зведення обох доріжок: kryk-v.ya.

Ролі озвучили: Інтер: Анатолій Зіновенко, Тетяна Зіновенко, Андрій Соболєв та один жіночий (прохання розпізнати). Титри і слово "кінець" промовляє Андрій Вільколек
1+1: Олесь Гімбаржевський та Ніна Касторф

Примітка: в озвученні з інтера в третій частині є порізані каналом сцени (даний канал так любить різати кіно) на ці моменти накладено озвучення з плюсів.

Якщо в когось є бажання викласти Remux, то можете взятися.

Є і продовження трилогії: тут


Срібний реліз (на рейтинг впливає 50% завантаженого)
 Трекер:    Зареєстрований   

Завантажити / скачати фільм українською



відео для новачків



 Зареєстрований:   2020-04-22 11:36
 Розмір:   5.52 GB 
 Оцінка фільму:   9.7/10 (Голосів: 12)
   
don pedro 
Попереджень: 1
Попереджень: 1 


З нами з: 29.06.11
Востаннє: 03.07.20
Повідомлень: 17123

2020-04-19 21:52  
Красивий фільм.
bot 
робот


З нами з: 30.09.07
Востаннє: 26.05.05
Повідомлень: 24931

2020-04-22 11:34  
Тему перенесено з Анонси релізів до форуму Фільми


21jumpstreet

piznajko 
Відео Гуртом - субтитрування
Відео Гуртом - субтитрування


З нами з: 24.02.09
Востаннє: 29.06.20
Повідомлень: 2198

2020-04-22 23:29  
Додайте десь посилання на продовження трилогії (фільм 2004 року) https://toloka.to/t70876
21jumpstreet 
VIP


З нами з: 03.07.12
Востаннє: 04.07.20
Повідомлень: 1091

2020-04-22 23:36  
piznajko
Додано. Дякую.

DLVillis 
Свій


З нами з: 12.10.10
Востаннє: 02.07.20
Повідомлень: 80

2020-04-23 12:31  
дивлюсь постер першого фільму і впізнаю актрису Мішель Монаган.

Актриси родичі?

21jumpstreet 
VIP


З нами з: 03.07.12
Востаннє: 04.07.20
Повідомлень: 1091

2020-04-23 13:07  
DLVillis
Ні. Та якщо графону до Мішельки додати, можна голлівудський рімейк знімати. Режисеркою я бачу Ґрету Ґервіґ. Ну і Сіршу Ронан з Тімоті Шаламе на додачу.

fl_fl 
Відео Гуртом - фільмокрай
Відео Гуртом - фільмокрай


З нами з: 26.05.09
Востаннє: 04.07.20
Повідомлень: 3275

2020-04-24 19:35  
21jumpstreet написано:
Ролі озвучили: Інтер: Анатолій Зіновенко, Тетяна Зіновенко і ще двоє акторів (прохання розпізнати). Титри і слово "кінець" промовляє Андрій Вільколек

Там ще точно Андрій Соболєв і ймовірно Юлія Перенчук.

Ваш часовий пояс: GMT + 2 Години

Нова тема   Відповісти