Кабінет доктора Калігарі / Das Cabinet des Dr. Caligari (1920) 1080p Ger | sub Ukr/Eng [Німе кіно]

Нові коментарі

Нова тема   Відповісти
Автор Повідомлення
Anonymous 







2020-04-17 19:50  
Кабінет доктора Калігарі / Das Cabinet des Dr. Caligari (1920) 1080p Ger | sub Ukr/Eng [Німе кіно]

Кабінет доктора Калігарі / Das Cabinet des Dr. Caligari (1920) 1080p Ger | sub Ukr/Eng [Німе кіно]


Жанр: драма, жахи
Країна: Німеччина



Кінокомпанія: Decla-Bioscop AG
Режисер: Роберт Віне (Robert Wiene)
Актори: Вернер Краус, Конрад Фейдт, Фрідріх Фейєр, Ліль Даговер, Ханс Генріх фон Твардовскі, Рудольф Леттінгер та інші.

Сюжет:
В саду знаходяться двоє чоловіків. Один літній, а інший ще зовсім молодий. Старий нарікає на те, що в саду розвелося надто багато привидів. Тут поруч з ними з'являється дівчина в білому одязі. Молодий чоловік - Франц - з жаром говорить, що це його наречена, і оповідає про події, що сталися з ними і його другом Аланом кілька років тому.


Тривалість: 1:17:18
Якість:
Відео:
кодек:
розмір кадру: 1440х1080
бітрейт: 8 мб/с

Аудіо # 1:
мова: відсутня, лише музичний супровід
переклад: оригінал
кодек: 5.1
бітрейт: 1509 кб/с

Субтитри:
мова: українська
тип: програмні (м'які)
формат: *.
переклад: власний аматорський, з російської

Субтитри:
мова: англійська
тип: програмні (м'які)
формат: *.
переклад: оригінал
Info
General
Unique ID : 338966253880669062687040294813599100637 (0xFF02869E02C8EDF2D29C8FADFFF96EDD)
Complete name : Das Cabinet des Dr. Caligari (1920) 1080p [UKR_ENG SUB].
Format :
Format version : Version 4
File size : 5.14 GiB
Duration : 1 h 17 min
Overall bit rate : 9 511 kb/s
Encoded date : UTC 2020-04-19 12:36:33
Writing application : v45.0.0 ('Heaven in Pennies') 64-bit
Writing library : libebml v1.3.10 + v1.5.2
Attachments : Poster.jpg

Video
ID : 1
Format : AVC
Format/Info : Advanced Video Codec
Format profile : [email protected]
Format settings : CABAC / 5 Ref Frames
Format settings, CABAC : Yes
Format settings, Reference : 5 frames
Codec ID : V_MPEG4/ISO/AVC
Duration : 1 h 17 min
Bit rate : 8 000 kb/s
Width : 1 440 pixels
Height : 1 080 pixels
Display aspect ratio : 4:3
Frame rate mode : Constant
Frame rate : 23.976 (24000/1001) FPS
Color space : YUV
Chroma subsampling : 4:2:0
Bit depth : 8 bits
Scan type : Progressive
Bits/(Pixel*Frame) : 0.215
Stream size : 4.32 GiB (84%)
Writing library : core 157 r2935 545de2f
Encoding settings : cabac=1 / ref=5 / deblock=1:-1:-1 / analyse=0x3:0x113 / me=umh / subme=11 / psy=1 / psy_rd=1.00:0.15 / mixed_ref=1 / me_range=48 / chroma_me=1 / trellis=2 / 8x8dct=1 / cqm=0 / deadzone=21,11 / fast_pskip=0 / chroma_qp_offset=-5 / threads=34 / lookahead_threads=5 / sliced_threads=0 / nr=0 / decimate=1 / interlaced=0 / bluray_compat=0 / constrained_intra=0 / bframes=8 / b_pyramid=2 / b_adapt=2 / b_bias=0 / direct=1 / weightb=1 / open_gop=0 / weightp=2 / keyint=240 / keyint_min=23 / scenecut=40 / intra_refresh=0 / rc_lookahead=60 / rc=2pass / mbtree=1 / bitrate=8000 / ratetol=1.0 / qcomp=0.60 / qpmin=10 / qpmax=69 / qpstep=4 / cplxblur=20.0 / qblur=0.5 / vbv_maxrate=50000 / vbv_bufsize=62500 / nal_hrd=none / filler=0 / ip_ratio=1.40 / aq=1:1.00
Default : Yes
Forced : No

Audio
ID : 2
Format :
Format/Info : Digital Theater Systems
Codec ID : A_DTS
Duration : 1 h 17 min
Bit rate mode : Constant
Bit rate : 1 509 kb/s
Channel(s) : 6 channels
Channel layout : C L R Ls Rs LFE
Sampling rate : 48.0 kHz
Frame rate : 93.750 FPS (512 SPF)
Bit depth : 24 bits
Compression mode : Lossy
Stream size : 834 MiB (16%)
Title : Music
Default : Yes
Forced : No

Text #1
ID : 3
Format :
Codec ID : S_TEXT/
Codec ID/Info : Advanced Sub Station Alpha
Duration : 1 h 15 min
Bit rate : 19 b/s
Count of elements : 130
Compression mode : Lossless
Stream size : 11.0 KiB (0%)
Language : Ukrainian
Default : Yes
Forced : No

Text #2
ID : 4
Format :
Codec ID : S_TEXT/
Codec ID/Info : Advanced Sub Station Alpha
Duration : 1 h 15 min
Bit rate : 13 b/s
Count of elements : 128
Compression mode : Lossless
Stream size : 7.57 KiB (0%)
Language : English
Default : No
Forced : No
Скріншоти








Інтересні факти
- "Кабінет доктора Калігарі" вважається першим повноцінним фільмом жахів.

- Знаменитий німий фільм, що поклав початок кіноекспресіонізму.

- Сценарій фільму був задуманий Карлом Маєром і Гансом Яновіц як метафора божевілля влади, яка кидає підлеглий їй «сплячий» народ в страшні лиха - мається на увазі, звичайно, програна Німеччиною світова війна.

- Ім'я «Калігарі» було взято сценаристами з листування Стендаля.

- Унікальне художнє оформлення фільму і використані в ньому декорації створили художники-експресіоністи з групи «Der Sturm» - Герман Варм, Вальтер Реріг і Вальтер Райман, які запропонували новаторську ідею, що фільми повинні виглядати як «ожилі малюнки».

- Спочатку режисером фільму повинен був стати Фріц Ланг, але він до початку зйомок виявився зайнятий в іншому проекті. Однак саме Лангу належить ідея «закільцювати» сюжет фільму епізодами в божевільні і тим самим кардинально змінити його трактування.

- Сценарист Ганс Яновітц любовно виписував головну жіночу роль для дами свого серця, Гільди Лангер, актриси берлінського "Резиденц-театру". На жаль, вона померла незадовго до початку зйомок, і роль перейшла до Ліл Даговер.

- Фільм користувався грандіозним успіхом у всьому світі. У США конкуренти компанії, яка займалася прокатом фільму, щоб зірвати його покази навіть організували марші протесту ветеранів війни під гаслом «Не будемо дивитися фільми, зняті ворогами Америки».
Торент обновлено 19-04-2020 поправлено звук


Джерело:
Особиста оцінка: 8 - мені сподобалося


Срібний реліз (на рейтинг впливає 50% завантаженого)
 Трекер:    Зареєстрований   

Завантажити / скачати фільм українською



відео для новачків



 Зареєстрований:   2020-04-19 14:51
 Розмір:   5.14 GB 
 Оцінка фільму:   9/10 (Голосів: 2)
   
VioletWolf 
Частий відвідувач


З нами з: 23.02.15
Востаннє: 28.11.20
Повідомлень: 48

2020-04-18 09:06  
І навіщо у описанні весь сюжет? тепер ш дивитись не хочеться
Anonymous 







2020-04-18 10:06  
VioletWolf написано:
І навіщо у описанні весь сюжет? тепер ш дивитись не хочеться

Поправив, дякую за рекомендацію!

Anonymous 







2020-04-19 14:53  
Обновив торент, зміни:
- Видалив аудіо доріжку №2, за правилами толоки

Ваш часовий пояс: GMT + 2 Години

Нова тема   Відповісти