Кабінет доктора Калігарі / Das Cabinet des Dr. Caligari (1920) Remux 1080p Ger | sub Ukr/Eng [Німе кіно]

Нові коментарі

Нова тема   Відповісти
Автор Повідомлення
Anonymous 







2020-04-17 19:36  
Кабінет доктора Калігарі / Das Cabinet des Dr. Caligari (1920) Remux 1080p Ger | sub Ukr/Eng [Німе кіно]

Кабінет доктора Калігарі / Das Cabinet des Dr. Caligari (1920) Remux 1080p Ger | sub Ukr/Eng [Німе кіно]


Жанр: драма, жахи
Країна: Німеччина



Кінокомпанія: Decla-Bioscop AG
Режисер: Роберт Віне (Robert Wiene)
Актори: Вернер Краус, Конрад Фейдт, Фрідріх Фейєр, Ліль Даговер, Ханс Генріх фон Твардовскі, Рудольф Леттінгер та інші.

Сюжет:
В саду знаходяться двоє чоловіків. Один літній, а інший ще зовсім молодий. Старий нарікає на те, що в саду розвелося надто багато привидів. Тут поруч з ними з'являється дівчина в білому одязі. Молодий чоловік - Франц - з жаром говорить, що це його наречена, і оповідає про події, що сталися з ними і його другом Аланом кілька років тому.


Тривалість: 1:17:18
Якість: Remux
Відео:
кодек:
розмір кадру: 1920х1080
бітрейт: 35.0 мб/с

Аудіо # 1:
мова: відсутня, лише музичний супровід
переклад: оригінал
кодек: -HD MA 5.1
бітрейт: 3760 кб/с

Субтитри:
мова: українська
тип: програмні (м'які)
формат: *.
переклад: власний аматорський, з російської

Субтитри:
мова: англійська
тип: програмні (м'які)
формат: *.
переклад: оригінал
Info
General
Unique ID : 175054980660124975342520682213115643260 (0x83B25CE81CA4970C2B5A533C7097457C)
Complete name : Das Cabinet des Dr. Caligari (1920) Remux 1080p.
Format :
Format version : Version 4
File size : 20.9 GiB
Duration : 1 h 17 min
Overall bit rate mode : Variable
Overall bit rate : 38.7 Mb/s
Encoded date : UTC 2020-04-19 07:14:18
Writing application : v45.0.0 ('Heaven in Pennies') 64-bit
Writing library : libebml v1.3.10 + v1.5.2
Attachments : Poster.jpg

Video
ID : 1
Format : AVC
Format/Info : Advanced Video Codec
Format profile : [email protected]
Format settings : CABAC / 3 Ref Frames
Format settings, CABAC : Yes
Format settings, Reference : 3 frames
Codec ID : V_MPEG4/ISO/AVC
Duration : 1 h 17 min
Bit rate mode : Variable
Bit rate : 35.0 Mb/s
Maximum bit rate : 38.0 Mb/s
Width : 1 920 pixels
Height : 1 080 pixels
Display aspect ratio : 16:9
Frame rate mode : Constant
Frame rate : 23.976 (24000/1001) FPS
Color space : YUV
Chroma subsampling : 4:2:0
Bit depth : 8 bits
Scan type : Progressive
Bits/(Pixel*Frame) : 0.704
Stream size : 18.9 GiB (90%)
Writing library : core 128 r2216 198a7ea
Encoding settings : cabac=1 / ref=4 / deblock=0:-1:-1 / analyse=0x3:0x133 / me=umh / subme=10 / psy=1 / psy_rd=1.00:0.15 / mixed_ref=1 / me_range=24 / chroma_me=1 / trellis=2 / 8x8dct=1 / cqm=0 / deadzone=21,11 / fast_pskip=1 / chroma_qp_offset=-3 / threads=12 / lookahead_threads=2 / sliced_threads=0 / slices=4 / nr=0 / decimate=1 / interlaced=0 / bluray_compat=1 / constrained_intra=0 / bframes=3 / b_pyramid=1 / b_adapt=2 / b_bias=0 / direct=3 / weightb=1 / open_gop=1 / weightp=1 / keyint=24 / keyint_min=1 / scenecut=40 / intra_refresh=0 / rc_lookahead=24 / rc=2pass / mbtree=0 / bitrate=35000 / ratetol=0.0 / qcomp=0.00 / qpmin=0 / qpmax=69 / qpstep=4 / cplxblur=20.0 / qblur=0.5 / vbv_maxrate=38000 / vbv_bufsize=28500 / nal_hrd=vbr / ip_ratio=1.40 / pb_ratio=1.30 / aq=1:0.50
Default : Yes
Forced : No
Color range : Limited
Color primaries : BT.709
Transfer characteristics : BT.709
Matrix coefficients : BT.709

Audio
ID : 2
Format : XLL
Format/Info : Digital Theater Systems
Commercial name : -HD Master Audio
Codec ID : A_DTS
Duration : 1 h 17 min
Bit rate mode : Variable
Bit rate : 3 760 kb/s
Channel(s) : 6 channels
Channel layout : C L R Ls Rs LFE
Sampling rate : 48.0 kHz
Frame rate : 93.750 FPS (512 SPF)
Bit depth : 24 bits
Compression mode : Lossless
Stream size : 2.03 GiB (10%)
Title : Music
Default : Yes
Forced : No

Text #1
ID : 3
Format :
Codec ID : S_TEXT/
Codec ID/Info : Advanced Sub Station Alpha
Duration : 1 h 15 min
Bit rate : 19 b/s
Count of elements : 130
Compression mode : Lossless
Stream size : 11.0 KiB (0%)
Language : Ukrainian
Default : Yes
Forced : No

Text #2
ID : 4
Format :
Codec ID : S_TEXT/
Codec ID/Info : Advanced Sub Station Alpha
Duration : 1 h 15 min
Bit rate : 13 b/s
Count of elements : 128
Compression mode : Lossless
Stream size : 7.57 KiB (0%)
Language : English
Default : No
Forced : No
Скріншоти








Інтересні факти
- "Кабінет доктора Калігарі" вважається першим повноцінним фільмом жахів.

- Знаменитий німий фільм, що поклав початок кіноекспресіонізму.

- Сценарій фільму був задуманий Карлом Маєром і Гансом Яновіц як метафора божевілля влади, яка кидає підлеглий їй «сплячий» народ в страшні лиха - мається на увазі, звичайно, програна Німеччиною світова війна.

- Ім'я «Калігарі» було взято сценаристами з листування Стендаля.

- Унікальне художнє оформлення фільму і використані в ньому декорації створили художники-експресіоністи з групи «Der Sturm» - Герман Варм, Вальтер Реріг і Вальтер Райман, які запропонували новаторську ідею, що фільми повинні виглядати як «ожилі малюнки».

- Спочатку режисером фільму повинен був стати Фріц Ланг, але він до початку зйомок виявився зайнятий в іншому проекті. Однак саме Лангу належить ідея «закільцювати» сюжет фільму епізодами в божевільні і тим самим кардинально змінити його трактування.

- Сценарист Ганс Яновітц любовно виписував головну жіночу роль для дами свого серця, Гільди Лангер, актриси берлінського "Резиденц-театру". На жаль, вона померла незадовго до початку зйомок, і роль перейшла до Ліл Даговер.

- Фільм користувався грандіозним успіхом у всьому світі. У США конкуренти компанії, яка займалася прокатом фільму, щоб зірвати його покази навіть організували марші протесту ветеранів війни під гаслом «Не будемо дивитися фільми, зняті ворогами Америки».
Торент обновлено 19-04-2020 поправлено звук


Джерело: &
Особиста оцінка: 8 - мені сподобалося


Золотий реліз (завантажене не впливає на рейтинг)
 Трекер:    Зареєстрований   

Завантажити / скачати фільм українською



відео для новачків



 Зареєстрований:   2020-04-19 15:31
 Розмір:   20.9 GB 
 Оцінка фільму:   8/10 (Голосів: 1)
   
Anonymous 







2020-04-19 10:01  
Торент обновлено, зміни:
- видалено ауді доріжку №2, за правилами толоки

Ваш часовий пояс: GMT + 2 Години

Нова тема   Відповісти