Вондер тут і там (Сезон 1-2) / Wander Over Yonder (2013) 1080p Ukr/Eng

Нові коментарі

Нова тема   Відповісти
Автор Повідомлення
bombocat 
Новенький


З нами з: 05.10.19
Востаннє: 14.03.21
Повідомлень: 16

2020-04-17 19:11  
Вондер тут і там (Сезон 1-2) / Wander Over Yonder (2013) 1080p Ukr/Eng

Вондер тут і там (Сезон 1-2) / Wander Over Yonder (2013) 1080p Ukr/Eng


Жанр: пригодницький, фантастика, комедія
Країна: США



Кінокомпанія: Disney Television Animation
Режисер: Крейг Маккракен
Актори: Джек Макбрейєр, Ейпріл Уінчел, Кіт Фергюсон, Том Кенні.

Сюжет:
Справжні герої не обов'язково повинні мати купу м'язів і спопеляти ворогів неймовірними суперздібностями. Деякі просто дарують всім гарний настрій і допомагають стати щасливішими. Це й є головна мета нашого героя – мегапозитивного і вкрай поважного персонажа Вондера. Кмітливості та кількості його друзів можна тільки позаздрити. У компанії з вірною кобилкою Сільвією, він мандрує від планеті до планети, допомагаючи жителям стати вільними та розважається на повну. Але здійсненню цієї благородної місії частенько заважає Лорд Злюкер, який ненавидить радість і прагне керувати усім всесвітом.


Тривалість: 1 серія: 22:00 (цілком серій: 43)
Перелік серій
Сезон 1
01. Підкорювач / Яйце
02. Пікнік / Втікачі
03. Добра справа / Бранець
04. Вихованець
05. Негідник / Троль
06. Посилка / Капелюх
07. Маленький вояка
08. Мисливці / М'яч
09. Герой / Іменинник
10. Славний малий / Годинникова бомба
11. Вечір сюрпризів / Туристка
12. День / Ніч
13. Самотня планета / Мозковий штурм
14. Завзятий тусовщик / Дитина
15. Героїнчний подвиг всесвітнього масштабу / Порожнеча
16. Нудьга / Вороги
17. Брехня / Сирота
18. Вечеря / Друзі
19. Подарок 2: Обдаровування / Подарок
20. В ділі / Помічник
21. Ковбой

Сезон 2
01. Зліше Злидня
02. Особливий день / Завтрак
03. Екстрений контакт / Тут-І-Там
04. Тут-І-Тами / Звільнений
05. Кульки за ролики / Ти квач
06. Класний хлопець / Лапочка
07. Вечірка / Хороший поганий хлопець
08. Грандіозна битва
09. Купідон / Нові іграшка
10. Чорний куб / Корабель-череп: погляд зсередини
11. Секретна планета / Бездумний Капелюшник
12. Дірка від бублика / Саботажники
13. Мультсеріал / Бот
14. Сімейні зв'язки / Суперник
15. Мій прекрасний Злидень
16. Легенда / Погані сусіди
17. Без лишніх думок / Втрачений час
18. Лихач / Нічний відрив
19. У пошуках капітана Тіма / Мурашки по шкірі
20. Постільний режим / Хлопець з неба
21. Робомехаботатрон / Квітка
22. Кінець галактики
Якість:
Відео:
кодек:
розмір кадру: 1920 х 1080
бітрейт: 5000 кб/с

Аудіо # 1:
мова: українська
переклад: професійний дубльований
кодек: 2.0
бітрейт: 192кб/с

Аудіо # 2:
мова: англійська
переклад: оригінал
кодек: 2.0
бітрейт: 192кб/с

Джерело озвучення:

Запис: sergiyko
Зведення: bombocat

Субтитри:
мова: англійська
тип: програмні (м'які)
формат: *.srt
Info (season 1)
General
Unique ID : 181764122216442372818896689245873328088 (0x88BE7F1FD058303421C08B28DE394FD8)
Complete name : D:\Wander.Over.Yonder.S01.1080p..Ukr.Eng\Wander.Over.Yonder.S01E01.The.Greatest.-.The Egg.1080p..Ukr.Eng.
Format :
Format version : Version 4 / Version 2
File size : 820 MiB
Duration : 21mn 53s
Overall bit rate : 5 239 Kbps
Encoded date : UTC 2020-04-12 15:34:12
Writing application : v37.0.0 ('Leave It') 64-bit
Writing library : libebml v1.3.9 + v1.5.2
Attachements : cover.jpg
DURATION : 00:21:01.501000000
NUMBER_OF_FRAMES : 430
NUMBER_OF_BYTES : 14899
_STATISTICS_WRITING_APP : v37.0.0 ('Leave It') 64-bit
_STATISTICS_WRITING_DATE_UTC : 2020-04-12 15:34:12
_STATISTICS_TAGS : BPS DURATION NUMBER_OF_FRAMES NUMBER_OF_BYTES

Video
ID : 1
Format : AVC
Format/Info : Advanced Video Codec
Format profile : [email protected]
Format settings, CABAC : Yes
Format settings, ReFrames : 4 frames
Codec ID : V_MPEG4/ISO/AVC
Duration : 21mn 53s
Bit rate : 4 750 Kbps
Width : 1 920 pixels
Height : 1 080 pixels
Display aspect ratio : 16:9
Frame rate mode : Constant
Frame rate : 25.000 fps
Color space : YUV
Chroma subsampling : 4:2:0
Bit depth : 8 bits
Scan type : Progressive
Bits/(Pixel*Frame) : 0.092
Stream size : 744 MiB (91%)
Title : by bombocat
Language : English
Default : Yes
Forced : Yes
Color range : Limited
Color primaries : BT.709
Transfer characteristics : BT.709
Matrix coefficients : BT.709

Audio #1
ID : 2
Format : AC-3
Format/Info : Audio Coding 3
Mode extension : CM (complete main)
Format settings, Endianness : Big
Codec ID : A_AC3
Duration : 21mn 53s
Bit rate mode : Constant
Bit rate : 192 Kbps
Channel(s) : 2 channels
Channel positions : Front: L R
Sampling rate : 48.0 KHz
Compression mode : Lossy
Stream size : 30.1 MiB (4%)
Title : LeDoyen Studio / ПлюсПлюс
Language : Ukrainian
Default : Yes
Forced : No

Audio #2
ID : 3
Format : AC-3
Format/Info : Audio Coding 3
Mode extension : CM (complete main)
Format settings, Endianness : Big
Codec ID : A_AC3
Duration : 21mn 53s
Bit rate mode : Constant
Bit rate : 192 Kbps
Channel(s) : 2 channels
Channel positions : Front: L R
Sampling rate : 48.0 KHz
Compression mode : Lossy
Stream size : 30.1 MiB (4%)
Language : English
Default : No
Forced : No

Text
ID : 4
Format : UTF-8
Codec ID : S_TEXT/UTF8
Codec ID/Info : UTF-8 Plain Text
Language : English
Default : No
Forced : No
Info (season 2)
General
Unique ID : 23559203606174866504627289560133479446 (0x11B9566AEDC939826E32B54C0F312C16)
Complete name : D:\Wander.Over.Yonder.S02.1080p..Ukr.Eng\Wander.Over.Yonder.S02E01.The.Greater.Hater.1080p..Ukr.Eng.
Format :
Format version : Version 4 / Version 2
File size : 890 MiB
Duration : 22mn 4s
Overall bit rate : 5 642 Kbps
Movie name : Wander Over Yonder S02E01: The Greater Hater
Encoded date : UTC 2020-04-13 18:08:30
Writing application : v45.0.0 ('Heaven in Pennies') 64-bit
Writing library : libebml v1.3.10 + v1.5.2
Attachements : cover.jpg
DURATION : 00:21:12.672000000
NUMBER_OF_FRAMES : 39771
NUMBER_OF_BYTES : 30544128
_STATISTICS_WRITING_APP : v45.0.0 ('Heaven in Pennies') 64-bit
_STATISTICS_WRITING_DATE_UTC : 2020-04-13 18:08:30
_STATISTICS_TAGS : BPS DURATION NUMBER_OF_FRAMES NUMBER_OF_BYTES

Video
ID : 1
Format : AVC
Format/Info : Advanced Video Codec
Format profile : [email protected]
Format settings, CABAC : Yes
Format settings, ReFrames : 4 frames
Codec ID : V_MPEG4/ISO/AVC
Duration : 22mn 4s
Bit rate : 5 145 Kbps
Width : 1 920 pixels
Height : 1 080 pixels
Display aspect ratio : 16:9
Frame rate mode : Constant
Frame rate : 25.000 fps
Color space : YUV
Chroma subsampling : 4:2:0
Bit depth : 8 bits
Scan type : Progressive
Bits/(Pixel*Frame) : 0.099
Stream size : 812 MiB (91%)
Title : by bombocat
Language : English
Default : Yes
Forced : No
Color range : Limited
Color primaries : BT.709
Transfer characteristics : BT.709
Matrix coefficients : BT.709

Audio #1
ID : 2
Format : AC-3
Format/Info : Audio Coding 3
Mode extension : CM (complete main)
Format settings, Endianness : Big
Codec ID : A_AC3
Duration : 22mn 4s
Bit rate mode : Constant
Bit rate : 192 Kbps
Channel(s) : 2 channels
Channel positions : Front: L R
Sampling rate : 48.0 KHz
Compression mode : Lossy
Stream size : 30.3 MiB (3%)
Title : [ | 192 kb/s | UA - Plus Plus ]
Language : Ukrainian
Default : Yes
Forced : No

Audio #2
ID : 3
Format : AC-3
Format/Info : Audio Coding 3
Mode extension : CM (complete main)
Format settings, Endianness : Big
Codec ID : A_AC3
Duration : 22mn 4s
Bit rate mode : Constant
Bit rate : 192 Kbps
Channel(s) : 2 channels
Channel positions : Front: L R
Sampling rate : 48.0 KHz
Compression mode : Lossy
Stream size : 30.3 MiB (3%)
Title : [ | 192 kb/s | ENG - Original ]
Language : English
Default : No
Forced : No

Text
ID : 4
Format : UTF-8
Codec ID : S_TEXT/UTF8
Codec ID/Info : UTF-8 Plain Text
Title : [ subrip | ENG ]
Language : English
Default : No
Forced : No
Скріншоти
Джерело: &
Особиста оцінка: 10 - без зайвих вагань рекомендую всім!


Бронзовий реліз (на рейтинг впливає 75% завантаженого)
 Трекер:    Зареєстрований   

Завантажити / скачати мультфільм українською



відео для новачків



 Зареєстрований:   2020-04-18 14:38
 Розмір:   37.01 GB 
 Оцінка мультсеріалу:   10/10 (Голосів: 4)
   
bombocat 
Новенький


З нами з: 05.10.19
Востаннє: 14.03.21
Повідомлень: 16

2020-04-18 14:39  
Не підключалось до пірів. Поновив трекер.
Ваш часовий пояс: GMT + 2 Години

Нова тема   Відповісти