Презентація нових книг Сергія Жадана. «Список кораблів». (16.04.2020) -AVC

Нові коментарі

Нова тема   Відповісти
Автор Повідомлення
Anonymous 







2020-04-17 14:16  
Презентація нових книг Сергія Жадана. «Список кораблів». (16.04.2020) -AVC


Жанр: Презентація
Країна: Україна

Телеканал: UA: Культура
Режисер: Ярослав Лодигін
Актори: Сергій Жадан

Опис:
У четвер, 16 квітня о 21:00 у прямому ефірі каналів «UA: Культура» та «UA: Харків» український письменник і поет Сергій Жадан презентуватиме дві свої книги — поетичну збірку «Список кораблів» та п’єсу «Хлібне перемир’я».

Тривалість: 52:30

Якість: IPTV-AVC
Відео:
кодек:
розмір кадру: 1024 х 576
бітрейт: ~1822 кб/с

Аудіо # 1:
мова: українська
кодек: 2.0
бітрейт: 132 кб/с
Info
General
Unique ID : 129290122780406261240554960395759650521 (0x61445F34AED89BD8221A7529C28A06D9)
Complete name : F:\Serhiy.Zhadan.Spysok Korabliv.16.04.2020..
Format :
Format version : Version 4 / Version 2
File size : 734 MiB
Duration : 52 min 30 s
Overall bit rate : 1 955 kb/s
Encoded date : UTC 2020-04-17 11:56:19
Writing application : v31.0.0 ('Dolores In A Shoestand') 64-bit
Writing library : libebml v1.3.6 + v1.4.9

Video
ID : 1
Format : AVC
Format/Info : Advanced Video Codec
Format profile : [email protected]
Format settings : 2 Ref Frames
Format settings, CABAC : No
Format settings, ReFrames : 2 frames
Codec ID : V_MPEG4/ISO/AVC
Duration : 52 min 30 s
Bit rate : 1 822 kb/s
Width : 1 024 pixels
Height : 576 pixels
Display aspect ratio : 16:9
Frame rate mode : Constant
Frame rate : 25.000 FPS
Color space : YUV
Chroma subsampling : 4:2:0
Bit depth : 8 bits
Scan type : Progressive
Bits/(Pixel*Frame) : 0.124
Stream size : 684 MiB (93%)
Language : Ukrainian
Default : Yes
Forced : No

Audio
ID : 2
Format :
Format/Info : Advanced Audio Codec
Format profile : LC
Codec ID : A_AAC-2
Duration : 52 min 30 s
Bit rate : 132 kb/s
Channel(s) : 2 channels
Channel positions : Front: L R
Sampling rate : 44.1 kHz
Frame rate : 43.066 FPS (1024 SPF)
Compression mode : Lossy
Stream size : 49.1 MiB (7%)
Language : Ukrainian
Default : Yes
Forced : No
Скріншоти:
Джерело:
Особиста оцінка: 10 - без зайвих вагань рекомендую всім!


Золотий реліз (завантажене не впливає на рейтинг)
 Трекер:    Зареєстрований   

Завантажити / скачати передачу українською



відео для новачків



 Зареєстрований:   2020-04-17 14:16
 Розмір:   734 MB 
 Оцінка передачі:   10/10 (Голосів: 3)
   
Ваш часовий пояс: GMT + 2 Години

Нова тема   Відповісти