Пуститися берега (Сезони 1-5) / Breaking Bad (Seasons 1-5) (2008-2012) 1080p Ukr/Eng | sub Eng

Нові коментарі

Нова тема   Відповісти
Автор Повідомлення
антиватнік 
Частий відвідувач


З нами з: 17.08.15
Востаннє: 29.11.20
Повідомлень: 29

2020-04-17 13:16  
Пуститися берега (Сезони 1-5) / Breaking Bad (Seasons 1-5) (2008-2012) 1080p Ukr/Eng | sub Eng

Пуститися берега (Сезони 1-5) / Breaking Bad (Seasons 1-5) (2008-2012) 1080p Ukr/Eng | sub Eng


Жанр: драма, кримінальний, трилер
Країна: США



Кінокомпанія: High Bridge Productions, Gran Via Productions, Sony Pictures Television
Режисер: Адам Бернштейн
Актори: Брайан Кренстон, Анна Ганн, Аарон Пол, Дін Норріс, Бетсі Брандт

Сюжет:
Волтер Вайт - викладач хімії в університеті. У нього є дружина, яка вагітна, й син-інвалід. Волт уже немолодий і в його віці часто бувають кризи, тим більше потрібно годувати родину, а на заробітну платню викладача не розгуляєшся, тому він змушений підробляти на автомийці, де його ж студенти з нього насміхаються, а ще син, чию інвалідність теж постійно осміюють.
Його свояк працює в Управлінні по боротьбі з наркотиками й одного разу пропонує взяти участь в облаві будинку, де розташована лабораторія з виробництва метамфетаміна. Під час облави Волт випадково бачить, як один дилер тікає, ним виявляється його колишній студент.
Розчарований у житті, Волт вирішує зайнятися з ним бізнесом з виробництва метамфетаміна. Хто ще може приготувати найчистіший метамфетамін, як не вчитель хімії?


Тривалість: 1 серія: 47:00 (цілком серій: 62)
Перелік серій
Сезон 1
01. Pilot
02. Cat's in the Bag...
03. ...And the Bag's in the River
04. Cancer Man
05. Gray Matter
06. Crazy Handful of Nothin'
07. A No-Rough-Stuff-Type Deal

Сезон 2
01. Seven Thirty-Seven
02. Grilled
03. Bit by a Dead Bee
04. Down
05. Breakage
06. Peekaboo
07. Negro Y Azul
08. Better Call Saul
09. 4 Days Out
10. Over
11. Mandala
12. Phoenix
13. ABQ

Сезон 3
01. No Mas
02. Caballo sin nombre
03. I.F.T.
04. Green Light
05. Mas
06. Sunset
07. One Minute
08. I See You
09. Kafkaesque
10. Fly
11. Abiquiu
12. Half Measures
13. Full Measure

Сезон 4
01. Канцелярський ніж /Box Cutter
02. Тридцять восьмий, курносий / Thirty-Eight Snub
03. Дім на продаж / Open House
04. Ключові моменти / Bullet Points
05. Дробовик / Shotgun
06. Загнаний в кут / Cornered
07. Проблемний пес / Problem Dog
08. Брати / Hermanos
09. Жучок / Bug
10. На здоров'я! / Salud
11. Підпілля / Crawl Space
12. Пора закінчувати / End Times
13. Без обличчя / Face Off

Сезон 5
1. Live Free or Die
2. Madrigal
3. Hazard Pay
4. Fifty-One
5. Dead Freight
6. Buyout
7. Say My Name
8. Gliding Over All
9. Blood Money
10. Buried
11. Confessions
12. Rabid Dog
13. To'hajiilee
14. Ozymandias
15. Granite State
16. Felina
Якість:
Відео:
кодек:
розмір кадру: 1920 х 1080
бітрейт: 11 000 кб/с

Аудіо # 1:
мова: українська
переклад: багатоголосий закадровий | AMC
кодек: 2.0
бітрейт: 128 кб/с (сезони 1-2), 192 кб/с (сезони 3-5)

Аудіо # 2 (наявне лише в 1-2 сезоні):
мова: українська
переклад: багатоголосий закадровий | Інтер
кодек: MP3
бітрейт: 128 кб/с

Джерело озвучення: ,

Аудіо # 3:
мова: англійська
переклад: оригінал
кодек: 5.1
бітрейт: 1509 кб/с

Субтитри:
мова: англійська
тип: програмні (м'які)
формат: *.srt
Info
General
Unique ID : 56222561360502217037578416520474934709 (0x2A4C124A610868ADBCA4F395E0343DB5)
Complete name : E:\Відео\Breaking Bad 1080p \Breaking Bad S01 1080p \Breaking.Bad.S01E01.1080p..Ukr.Eng.
Format :
Format version : Version 4
File size : 5.18 GiB
Duration : 58 min 6 s
Overall bit rate : 12.8 Mb/s
Encoded date : UTC 2020-04-15 17:36:02
Writing application : v45.0.0 ('Heaven in Pennies') 64-bit
Writing library : libebml v1.3.10 + v1.5.2
Cover : Yes
Attachments : cover.jpg

Video
ID : 1
Format : AVC
Format/Info : Advanced Video Codec
Format profile : [email protected]
Format settings : CABAC / 4 Ref Frames
Format settings, CABAC : Yes
Format settings, Reference : 4 frames
Codec ID : V_MPEG4/ISO/AVC
Duration : 58 min 6 s
Bit rate : 11.0 Mb/s
Width : 1 920 pixels
Height : 1 080 pixels
Display aspect ratio : 16:9
Frame rate mode : Constant
Frame rate : 23.976 (24000/1001) FPS
Color space : YUV
Chroma subsampling : 4:2:0
Bit depth : 8 bits
Scan type : Progressive
Bits/(Pixel*Frame) : 0.221
Stream size : 4.46 GiB (86%)
Writing library : core 140 r2377 1ca7bb9
Encoding settings : cabac=1 / ref=4 / deblock=1:-1:-1 / analyse=0x3:0x133 / me=umh / subme=9 / psy=1 / psy_rd=1.00:0.00 / mixed_ref=1 / me_range=32 / chroma_me=1 / trellis=2 / 8x8dct=1 / cqm=0 / deadzone=21,11 / fast_pskip=0 / chroma_qp_offset=-2 / threads=2 / lookahead_threads=1 / sliced_threads=0 / slices=4 / nr=0 / decimate=1 / interlaced=0 / bluray_compat=0 / constrained_intra=0 / bframes=3 / b_pyramid=2 / b_adapt=2 / b_bias=0 / direct=3 / weightb=1 / open_gop=0 / weightp=2 / keyint=230 / keyint_min=23 / scenecut=40 / intra_refresh=0 / rc_lookahead=40 / rc=2pass / mbtree=1 / bitrate=10999 / ratetol=1.0 / qcomp=0.60 / qpmin=0 / qpmax=69 / qpstep=4 / cplxblur=20.0 / qblur=0.5 / ip_ratio=1.40 / aq=1:1.00
Default : Yes
Forced : No

Audio #1
ID : 2
Format : AC-3
Format/Info : Audio Coding 3
Commercial name : Dolby Digital
Codec ID : A_AC3
Duration : 58 min 6 s
Bit rate mode : Constant
Bit rate : 128 kb/s
Channel(s) : 2 channels
Channel layout : L R
Sampling rate : 48.0 kHz
Frame rate : 31.250 FPS (1536 SPF)
Compression mode : Lossy
Stream size : 53.2 MiB (1%)
Title : MOV 2ch | AMC
Language : Ukrainian
Service kind : Complete Main
Default : Yes
Forced : Yes

Audio #2
ID : 3
Format : MPEG Audio
Format version : Version 1
Format profile : Layer 3
Format settings : Joint stereo / MS Stereo
Codec ID : A_MPEG/L3
Codec ID/Hint : MP3
Duration : 58 min 6 s
Bit rate mode : Constant
Bit rate : 128 kb/s
Channel(s) : 2 channels
Sampling rate : 48.0 kHz
Frame rate : 41.667 FPS (1152 SPF)
Compression mode : Lossy
Stream size : 53.2 MiB (1%)
Title : MOV MP3 2ch | Інтер
Language : Ukrainian
Default : No
Forced : No

Audio #3
ID : 4
Format :
Format/Info : Digital Theater Systems
Codec ID : A_DTS
Duration : 58 min 6 s
Bit rate mode : Constant
Bit rate : 1 509 kb/s
Channel(s) : 6 channels
Channel layout : C L R Ls Rs LFE
Sampling rate : 48.0 kHz
Frame rate : 93.750 FPS (512 SPF)
Bit depth : 24 bits
Compression mode : Lossy
Stream size : 627 MiB (12%)
Title : Original
Language : English
Default : No
Forced : No

Text
ID : 5
Format : UTF-8
Codec ID : S_TEXT/UTF8
Codec ID/Info : UTF-8 Plain Text
Duration : 56 min 1 s
Bit rate : 47 b/s
Count of elements : 672
Stream size : 19.3 KiB (0%)
Title : original
Language : English
Default : No
Forced : No
Скріншоти







Джерело: &
Особиста оцінка: 10 - без зайвих вагань рекомендую всім!



Золотий реліз (завантажене не впливає на рейтинг)
 Трекер:    Зареєстрований   

Завантажити / скачати серіал українською



відео для новачків



 Зареєстрований:   2020-04-17 13:16
 Розмір:   262.61 GB 
 Оцінка серіалу:   9.9/10 (Голосів: 18)
   
77997997 
VIP


З нами з: 26.02.13
Востаннє: 30.11.20
Повідомлень: 1213

2020-04-17 14:08  
https://www.ivi.ru/watch/vo_vse_tyazhkie
Цікаво, чи тут дійсно 5.1 наша доріжка...

igor911 
Модератор відео


З нами з: 18.01.08
Востаннє: 30.11.20
Повідомлень: 15083

2020-04-17 14:12  
антиватнік, чому не додали українські субтитри до 3-5 сезонів?
антиватнік 
Частий відвідувач


З нами з: 17.08.15
Востаннє: 29.11.20
Повідомлень: 29

2020-04-17 14:36  
igor911
та якось провтикав цей момент (сорі)

igor911 
Модератор відео


З нами з: 18.01.08
Востаннє: 30.11.20
Повідомлень: 15083

2020-04-17 14:37  
антиватнік написано:
та якось провтикав цей момент

я ж кілька разів наголошував про них в ПП.

serpantin2012 
Новенький


З нами з: 27.12.14
Востаннє: 27.11.20
Повідомлень: 10

2020-05-07 18:04  
Так що, будуть субтитри українські? Власне, без субтитрів я не качатиму.
Lyolic 
VIP


З нами з: 04.08.09
Востаннє: 30.11.20
Повідомлень: 568

2020-05-23 22:17  
igor911 написано:
українські субтитри до 3-5 сезонів

А де їх можна взяти?

Lyolic 
VIP


З нами з: 04.08.09
Востаннє: 30.11.20
Повідомлень: 568

2020-05-31 23:24  
Lyolic написано:

igor911 написано:
українські субтитри до 3-5 сезонів

А де їх можна взяти?

Якісь секретні субтитри.
Перше правило українських субтитрів - нікому не казати про українські субтитри )))

З рештою, в ремуксах були саби до 1 та 5 сезонів. На толоці знайшов ще до 3 та 4 сезонів, але то до TV ріпа, там треба корегувати під BD

Ваш часовий пояс: GMT + 2 Години

Нова тема   Відповісти