Під водою / Underwater (2020) 720p Ukr/Eng | Sub Ukr/Eng

Нові коментарі

Нова тема   Відповісти
Автор Повідомлення
Anonymous 







2020-04-17 13:54  
Під водою / Underwater (2020) 720p Ukr/Eng | Sub Ukr/Eng

Під водою / Underwater (2020) 720p Ukr/Eng | Sub Ukr/Eng
Офіційні та альтернативний постери:

Під водою / Underwater (2020) 720p Ukr/Eng | Sub Ukr/Eng







Жанр: екшн, драма, жахи
Країна: США



Кінокомпанія: 20th Century Fox Film Corporation, Chernin Entertainment, TSG Entertainment, Twentieth Century Fox
Режисер: Вільям Юбенк / William Eubank
Актори: Крістен Стюарт / Kristen Stewart, Венсан Кассель / Vincent Cassel, ТіДжей Міллер / T.J. Miller, Джессіка Хенвік / Jessica Henwick, Джон Галлахер мол. / John Gallagher Jr., Мамуду Аті / Mamoudou Athie, Ганнер Райт / Gunner Wright, Аманда Труп / Amanda Troop та інші.

Сюжет:
Група дослідників підводного світу повинна вибратися і врятуватися після того, як землетрус руйнує їх глибоководну лабораторію.
Офіційний український трейлер:


Рейтинг MPAA: PG-13 - дітям до 13 років перегляд не бажаний
Вікова категорія в Україні: 16/18+

Тривалість: 01:34:58
Якість:
Відео:
кодек:
розмір кадру: 1280х534
бітрейт: 4548 кб/с

Аудіо # 1:
мова: українська
переклад: професійний дубльований | студія Postmodern
кодек: 2.0 [стерео]
бітрейт: 192 кб/с

Аудіо # 2:
мова: англійська
переклад: оригінал
кодек: 5.1
бітрейт: 640 кб/с

Субтитри # 1:
мова: українська
тип: програмні (м'які)
формат: *.srt
переклад: офіційний, Наталія Наконечна

Субтитри # 2-3:
мова: англійська (повні, SDH)
тип: програмні (м'які)
формат: *.srt

Збережено оригінальні розділи, як на Blu-ray
Info
Код:
Complete name               : Underwater (2020) [Ukr,Eng sub.Ukr,Eng] 720p [Hurtom].
Format                      :
Format version              : Version 4
File size                   : 3.57 GiB
Duration                    : 1 h 34 min
Overall bit rate            : 5 383 kb/s
Movie name                  : Під водою / Underwater (2020) [Ukr,Eng sub.Ukr,Eng] 720p [Hurtom]
Encoded date                : UTC 2020-05-13 18:08:41
Writing application         : v46.0.0 ('No Deeper Escape') 64-bit
Writing library             : libebml v1.3.10 + v1.5.2
Cover                       : Yes
Attachments                 : cover.jpg / cover.jpg

Video
ID                          : 1
Format                      : AVC
Format/Info                 : Advanced Video Codec
Format profile              : [email protected]
Format settings             : CABAC / 12 Ref Frames
Format settings, CABAC      : Yes
Format settings, Reference  : 12 frames
Codec ID                    : V_MPEG4/ISO/AVC
Duration                    : 1 h 34 min
Bit rate                    : 4 548 kb/s
Width                       : 1 280 pixels
Height                      : 534 pixels
Display aspect ratio        : 2.40:1
Frame rate mode             : Constant
Frame rate                  : 23.976 (24000/1001) FPS
Color space                 : YUV
Chroma subsampling          : 4:2:0
Bit depth                   : 8 bits
Scan type                   : Progressive
Bits/(Pixel*Frame)          : 0.278
Stream size                 : 3.02 GiB (84%)
Title                       : Під водою / Underwater (2020) 720p [seleZen]
Writing library             : core 142 r2431+42 c69a006 tMod [[email protected] X86_64]
Encoding settings           : cabac=1 / ref=12 / deblock=1:-2:-2 / analyse=0x3:0x133 / me=umh / subme=10 / psy=1 / fade_compensate=0.00 / psy_rd=1.00:0.00 / mixed_ref=1 / me_range=32 / chroma_me=1 / trellis=2 / 8x8dct=1 / cqm=0 / deadzone=21,11 / fast_pskip=0 / chroma_qp_offset=-2 / threads=24 / lookahead_threads=4 / sliced_threads=0 / nr=0 / decimate=0 / interlaced=0 / bluray_compat=0 / constrained_intra=0 / fgo=0 / bframes=10 / b_pyramid=2 / b_adapt=2 / b_bias=0 / direct=3 / weightb=1 / open_gop=0 / weightp=2 / keyint=240 / keyint_min=23 / scenecut=40 / intra_refresh=0 / rc_lookahead=50 / rc=2pass / mbtree=0 / bitrate=4548 / ratetol=1.0 / qcomp=0.60 / qpmin=0:0:0 / qpmax=51:51:51 / qpstep=4 / cplxblur=20.0 / qblur=0.5 / vbv_maxrate=50000 / vbv_bufsize=62500 / nal_hrd=none / filler=0 / ip_ratio=1.40 / pb_ratio=1.30 / aq=3:0.80 / aq-sensitivity=10.00 / aq-factor=1.00:1.00:1.00 / aq2=0 / aq3=0
Language                    : English
Default                     : Yes
Forced                      : No

Audio #1
ID                          : 2
Format                      : AC-3
Format/Info                 : Audio Coding 3
Commercial name             : Dolby Digital
Codec ID                    : A_AC3
Duration                    : 1 h 34 min
Bit rate mode               : Constant
Bit rate                    : 192 kb/s
Channel(s)                  : 2 channels
Channel layout              : L R
Sampling rate               : 48.0 kHz
Frame rate                  : 31.250 FPS (1536 SPF)
Compression mode            : Lossy
Stream size                 : 130 MiB (4%)
Title                       : Dub [Postmodern], 2.0 [stereo] 192 Kbps
Language                    : Ukrainian
Service kind                : Complete Main
Default                     : Yes
Forced                      : Yes

Audio #2
ID                          : 3
Format                      : AC-3
Format/Info                 : Audio Coding 3
Commercial name             : Dolby Digital
Codec ID                    : A_AC3
Duration                    : 1 h 34 min
Bit rate mode               : Constant
Bit rate                    : 640 kb/s
Channel(s)                  : 6 channels
Channel layout              : L R C LFE Ls Rs
Sampling rate               : 48.0 kHz
Frame rate                  : 31.250 FPS (1536 SPF)
Compression mode            : Lossy
Stream size                 : 435 MiB (12%)
Title                       : Original, 5.1 640 Kbps
Language                    : English
Service kind                : Complete Main
Default                     : No
Forced                      : No

Text #1
ID                          : 4
Format                      : UTF-8
Codec ID                    : S_TEXT/UTF8
Codec ID/Info               : UTF-8 Plain Text
Duration                    : 1 h 33 min
Bit rate                    : 68 b/s
Count of elements           : 1145
Stream size                 : 47.1 KiB (0%)
Title                       : Ukr Full [Official]
Language                    : Ukrainian
Default                     : No
Forced                      : No

Text #2
ID                          : 5
Format                      : UTF-8
Codec ID                    : S_TEXT/UTF8
Codec ID/Info               : UTF-8 Plain Text
Duration                    : 1 h 30 min
Bit rate                    : 52 b/s
Count of elements           : 1182
Stream size                 : 34.4 KiB (0%)
Title                       : Eng Full
Language                    : English
Default                     : No
Forced                      : No

Text #3
ID                          : 6
Format                      : UTF-8
Codec ID                    : S_TEXT/UTF8
Codec ID/Info               : UTF-8 Plain Text
Duration                    : 1 h 32 min
Bit rate                    : 60 b/s
Count of elements           : 1387
Stream size                 : 40.7 KiB (0%)
Title                       : Eng SDH
Language                    : English
Default                     : No
Forced                      : No

Menu
00:00:00.000                : en:Chapter 01
00:06:17.627                : en:Chapter 02
00:09:39.537                : en:Chapter 03
00:13:25.638                : en:Chapter 04
00:16:21.897                : en:Chapter 05
00:20:40.322                : en:Chapter 06
00:22:51.495                : en:Chapter 07
00:27:11.171                : en:Chapter 08
00:30:51.140                : en:Chapter 09
00:34:26.647                : en:Chapter 10
00:39:25.154                : en:Chapter 11
00:43:41.785                : en:Chapter 12
00:48:40.167                : en:Chapter 13
00:53:58.109                : en:Chapter 14
00:56:00.690                : en:Chapter 15
01:01:53.543                : en:Chapter 16
01:05:26.172                : en:Chapter 17
01:08:12.588                : en:Chapter 18
01:13:52.886                : en:Chapter 19
01:16:04.476                : en:Chapter 20
01:18:34.835                : en:Chapter 21
01:21:22.085                : en:Chapter 22
01:23:04.062                : en:Chapter 23
01:29:51.803                : en:Chapter 24





Джерело: &
Подяка п.DanyZemlyanoy за постер та п.sub.Trader за субтитри.


 Трекер:    Зареєстрований   

Завантажити / скачати фільм українською



відео для новачків



 Зареєстрований:   2020-05-13 21:17
 Розмір:   3.57 GB 
 Оцінка фільму:   7.9/10 (Голосів: 15)
 ЗАЛИШАЙТЕСЬ ЯКОМОГА ДОВШЕ НА РОЗДАЧІ! ЗАВАНТАЖИВ САМ - ДАЙ ЗАВАНТАЖИТИ ІНШИМ!
   
Інші релізи
   Під водою / Underwater (2020) 1080p H.265 Ukr/Eng | Sub Ukr/Eng -Star-Lord-  18 / 0   4.59 GB   2020-05-14 16:23 
   Під водою / Underwater (2020) 1080p Ukr/Eng | Sub Ukr/Eng staf777  17 / 0   7.19 GB   2020-05-13 22:26 
   Під водою / Underwater (2020) antik_2008  30 / 0   1.29 GB   2020-05-13 22:25 
   Під водою / Underwater (2020) Remux 1080p Ukr/Eng | Sub Ukr/Eng antik_2008  5 / 0   21.5 GB   2020-05-13 21:35 
   Під водою / Underwater (2020) AVC Ukr/Eng | Sub Eng 11FrYkT  36 / 0   2.01 GB   2020-05-13 18:47 
DanyZemlyanoy 
Відео Гуртом - дизайнер
Відео Гуртом - дизайнер


З нами з: 02.07.16
Востаннє: 01.06.20
Повідомлень: 58

2020-04-18 04:19  
Якісний постер
Постер


Код:
[url=http://posters.hurtom.com/albums/movies/p-d-vodoyu.jpg][img]http://posters.hurtom.com/cache/movies/p-d-vodoyu_550.jpg[/img][/url]

DolR 
Поважний учасник


З нами з: 27.06.09
Востаннє: 28.05.20
Повідомлень: 224

2020-04-19 10:54  
Гарне кіно дивилася в кт буду чекат)
[email protected] 
Частий відвідувач


З нами з: 27.11.15
Востаннє: 29.05.20
Повідомлень: 31

2020-04-19 18:43  
Ходив в кіно. Нічого цікавого у фільмі не побачив, ніби й класно все виглядає. Але мені здалося, що фільм ні про що
abalir13 
Новенький


З нами з: 02.09.15
Востаннє: 02.06.20
Повідомлень: 11

2020-04-20 21:13  
[лайку, офтоп видалено]
usibat2015 
Свій


З нами з: 20.10.15
Востаннє: 01.06.20
Повідомлень: 89

2020-04-21 01:06  
Буде в н265 1080р або 4к?
IRONHIDE 
VIP


З нами з: 06.08.10
Востаннє: 01.06.20
Повідомлень: 272

2020-04-21 09:23  
Дно!
bot 
робот


З нами з: 30.09.07
Востаннє: 26.05.05
Повідомлень: 24608

2020-05-13 21:17  
Тему перенесено з Анонси релізів до форуму Фільми в HD


igor911

kuts-vv 
VIP


З нами з: 11.12.11
Востаннє: 01.06.20
Повідомлень: 308

2020-05-13 23:42  
Дуже навіть пристойний фільм. На одному диханні. Триллер все є таки
GliBond 
Свій


З нами з: 06.10.16
Востаннє: 02.06.20
Повідомлень: 70

2020-05-22 12:13  
Ляпи є, вчинки героїв тупі, вони мене бісили весь фільм. Сценарій, що мав потенціал був злитий в унітаз...
Ваш часовий пояс: GMT + 2 Години

Нова тема   Відповісти