Коти проти собак / Cats & Dogs (2001) 1080p 2xUkr/Eng | sub Eng

Нові коментарі

Нова тема   Відповісти
Автор Повідомлення
PatataFrita 
Свій


З нами з: 05.04.20
Востаннє: 05.08.20
Повідомлень: 82

2020-04-17 09:06  
Коти проти собак / Cats & Dogs (2001) 1080p 2xUkr/Eng | sub Eng

Коти проти собак / Cats & Dogs (2001) 1080p 2xUkr/Eng | sub Eng


Жанр: екшн, комедія, сімейний
Країна: США, Австралія



Кінокомпанія: Warner Bros. Pictures
Режисер: Лоуренс Г'ютерман
Актори: Джеф Голдблюм, Елізабет Перкінз, Александер Поллок, Міріам Марголіес, Майрон Нетвік, Доріс Чіллкотт

Сюжет:
Одвічне протистояння котів та собак переходить на найвищий технологічний рівень. Професор Броді винаходить препарат від алергії на собак, та підступні коти намагаються викрасти цей препарат, аби на його основі створити вірус що призведе до суцільної алергії на собак у людей. Розгортається справжня битва між котами та собаками із застосуванням високих технологій.


Тривалість: 01:27:15
Якість:
Відео:
кодек:
розмір кадру: 1920x1080
бітрейт: 11500 кб/с

Аудіо # 1:
мова: українська
переклад: багатоголосий закадровий
кодек: 2.0
бітрейт: 192 кб/с

Аудіо # 2:
мова: українська
переклад: двоголосий закадровий
кодек: 2.0
бітрейт: 192 кб/с

Аудіо # 3:
мова: англійська
переклад: оригінал
кодек: 2.0
бітрейт: 192 кб/с

Джерело озвучення:



Субтитри:
мова: англійська
тип: програмні (м'які)
формат: *.srt
Info
General
Unique ID : 242055183585829472521191716558206684347 (0xB61A21F3CA91FE33B994FD0E0BFC4CBB)
Complete name : D:\Cats & Dogs (2001) [2-ukr,eng] BDRip_1080p [Hurtom].
Format :
Format version : Version 4
File size : 7.38 GiB
Duration : 1 h 27 min
Overall bit rate : 12.1 Mb/s
Movie name : Cats & Dogs (2001) [2-ukr,eng] [Hurtom]
Encoded date : UTC 2020-04-17 05:29:36
Writing application : v45.0.0 ('Heaven in Pennies') 32-bit
Writing library : libebml v1.3.10 + v1.5.2

Video
ID : 4
Format : AVC
Format/Info : Advanced Video Codec
Format profile : [email protected]
Format settings : CABAC / 4 Ref Frames
Format settings, CABAC : Yes
Format settings, Reference : 4 frames
Codec ID : V_MPEG4/ISO/AVC
Duration : 1 h 27 min
Bit rate : 11.5 Mb/s
Width : 1 920 pixels
Height : 1 080 pixels
Display aspect ratio : 16:9
Frame rate mode : Constant
Frame rate : 23.976 FPS
Color space : YUV
Chroma subsampling : 4:2:0
Bit depth : 8 bits
Scan type : Progressive
Bits/(Pixel*Frame) : 0.232
Stream size : 7.03 GiB (95%)
Writing library : core 104 r1677 19df41a
Encoding settings : cabac=1 / ref=4 / deblock=1:0:0 / analyse=0x3:0x133 / me=umh / subme=7 / psy=1 / psy_rd=1.00:0.00 / mixed_ref=1 / me_range=16 / chroma_me=1 / trellis=1 / 8x8dct=1 / cqm=0 / deadzone=21,11 / fast_pskip=0 / chroma_qp_offset=-2 / threads=12 / sliced_threads=0 / nr=0 / decimate=1 / interlaced=0 / constrained_intra=0 / bframes=3 / b_pyramid=2 / b_adapt=1 / b_bias=0 / direct=1 / weightb=1 / open_gop=0 / weightp=2 / keyint=250 / keyint_min=23 / scenecut=40 / intra_refresh=0 / rc_lookahead=40 / rc=2pass / mbtree=1 / bitrate=11538 / ratetol=1.0 / qcomp=0.60 / qpmin=10 / qpmax=51 / qpstep=4 / cplxblur=20.0 / qblur=0.5 / ip_ratio=1.40 / aq=1:1.00
Language : English
Default : Yes
Forced : No

Audio #1
ID : 1
Format : AC-3
Format/Info : Audio Coding 3
Commercial name : Dolby Digital
Codec ID : A_AC3
Duration : 1 h 27 min
Bit rate mode : Constant
Bit rate : 192 kb/s
Channel(s) : 2 channels
Channel layout : L R
Sampling rate : 48.0 kHz
Frame rate : 31.250 FPS (1536 SPF)
Compression mode : Lossy
Stream size : 120 MiB (2%)
Service kind : Complete Main
Default : Yes
Forced : No

Audio #2
ID : 2
Format : AC-3
Format/Info : Audio Coding 3
Commercial name : Dolby Digital
Codec ID : A_AC3
Duration : 1 h 27 min
Bit rate mode : Constant
Bit rate : 192 kb/s
Channel(s) : 2 channels
Channel layout : L R
Sampling rate : 48.0 kHz
Frame rate : 31.250 FPS (1536 SPF)
Compression mode : Lossy
Stream size : 120 MiB (2%)
Service kind : Complete Main
Default : No
Forced : No

Audio #3
ID : 3
Format : AC-3
Format/Info : Audio Coding 3
Commercial name : Dolby Digital
Codec ID : A_AC3
Duration : 1 h 27 min
Bit rate mode : Constant
Bit rate : 192 kb/s
Channel(s) : 2 channels
Channel layout : L R
Sampling rate : 48.0 kHz
Frame rate : 31.250 FPS (1536 SPF)
Compression mode : Lossy
Stream size : 120 MiB (2%)
Service kind : Complete Main
Default : No
Forced : No

Text
ID : 5
Format : UTF-8
Codec ID : S_TEXT/UTF8
Codec ID/Info : UTF-8 Plain Text
Duration : 1 h 26 min
Bit rate : 53 b/s
Count of elements : 1082
Stream size : 33.8 KiB (0%)
Language : English
Default : No
Forced : No
Скріншоти



Джерело: &
Особиста оцінка: 8 - мені сподобалося

Цитата:
Запис доріжки №1 - gorezcaid (синхрон - robotron005)
Запис доріжки №2 - Bohdan237 (синхрон - Arsenfpu)
Український постер - Leib


Срібний реліз (на рейтинг впливає 50% завантаженого)
 Трекер:    Зареєстрований   

Завантажити / скачати фільм українською



відео для новачків



 Зареєстрований:   2020-04-17 09:06
 Розмір:   7.38 GB 
 Оцінка фільму:   10/10 (Голосів: 5)
   
Інші релізи
   Коти проти собак / Cats & Dogs (2001) 2xUkr/Eng robotron005  2 / 0   1.65 GB   2018-06-30 17:25 
   Коти проти собак / Cats & Dogs (2001) AVC Ukr/Eng | sub Eng Arsenfpu  5 / 0   1.95 GB   2018-02-17 09:44 
Ваш часовий пояс: GMT + 2 Години

Нова тема   Відповісти