Ґолдберги (Сезон 6) / The Goldbergs (Season 6) (2018-2019) 1080p Ukr/Eng | Sub Eng

Нові коментарі

Нова тема   Відповісти
Автор Повідомлення
Anonymous 







2020-04-16 16:15  
Ґолдберги (Сезон 6) / The Goldbergs (Season 6) (2018-2019) 1080p Ukr/Eng | Sub Eng



Жанр: ситком, комедія
Країна: США



Кінокомпанія: Adam F. Goldberg Productions, Happy Madison Productions, Sony Pictures Television
Режисер: Адам Ф. Ґолдберг / Adam F. Goldberg
Актори: Венді Маклендон-Кові / Wendi McLendon-Covey, Сіан Ґамброн / Sean Giambrone, Трой Джентіле / Troy Gentile, Гейлі Орранція / Hayley Orrantia, Джордж Сігал / George Segal, Джефф Гарлін / Jeff Garlin та інші.

Сюжет:
Ааерика вісімдесятих років минулого століття... Єврейську родину Ґолдбергів знає вся околиця. Батько сімейства Мюррей - деспот, який вважає що він завжди має рацію. Всі суперечки чоловік вирішує криками і образами, а свою дружину привчив до того ж. Старші діти вдалися в батьків, їхню поведінку важко назвати зразковою. Найнормальніший член родини - одинадцятирічний Адам, який мріє стати режисером і знімає на камеру все, що відбувається в галасливому будинку.


Тривалість: 1 серія: 1 серія: 21:00 (цілком серій: 23 з 23)
Перелік серій
1 Wed Sep 26, 2018 Sixteen Candles
2 Wed Oct 03, 2018 You Got Zuko'd
3 Wed Oct 10, 2018 RAD!
4 Wed Oct 17, 2018 Hershey Park
5 Wed Oct 24, 2018 Mister Knifey-Hands
6 Wed Oct 31, 2018 Fiddler
7 Wed Nov 07, 2018 Bohemian Rap City
8 Wed Nov 28, 2018 The Living Room: A 100 Percent True Story
9 Wed Dec 05, 2018 Bachelor Party
10 Wed Dec 12, 2018 Yippee Ki Yay Melon Farmer
11 Wed Jan 09, 2019 The Wedding Singer
12 Wed Jan 16, 2019 The Piña Colada Episode
13 Wed Jan 23, 2019 I Coulda Been a Lawyer
14 Wed Jan 30, 2019 Major League'd
15 Wed Feb 13, 2019 My Valentine Boy
16 Wed Feb 20, 2019 There Can Be Only One Highlander Club
17 Wed Feb 27, 2019 Our Perfect Strangers
18 Wed Mar 13, 2019 The Beverly Goldberg Cookbook
19 Wed Mar 20, 2019 Eight-bit Goldbergs
20 Wed Apr 03, 2019 This is This is Spinal Tap
21 Wed Apr 10, 2019 I Lost on Jeopardy
22 Wed May 01, 2019 Mom Trumps Willow
23 Wed May 08, 2019 Breakin
Якість:
Відео:
кодек:
розмір кадру: 1920 х 1080
бітрейт: 7000 кб/с

Аудіо # 1:
мова: українська
переклад: багатоголосий закадровий
кодек: 2.0
бітрейт: 192 кб/с

Джерело озвучення:


Аудіо # 2:
мова: англійська
переклад: оригінал
кодек: E- 5.1
бітрейт: 640 кб/с

Субтитри:
мова: англійська
тип: програмні (м'які)
формат: *.srt
Info

Video
ID : 1
Format : AVC
Format/Info : Advanced Video Codec
Format profile : [email protected]
Format settings : CABAC / 4 Ref Frames
Format settings, CABAC : Yes
Format settings, Reference : 4 frames
Codec ID : V_MPEG4/ISO/AVC
Duration : 21 min 33 s
Bit rate : 7 013 kb/s
Width : 1 920 pixels
Height : 1 080 pixels
Display aspect ratio : 16:9
Frame rate mode : Constant
Frame rate : 23.976 (24000/1001) FPS
Color space : YUV
Chroma subsampling : 4:2:0
Bit depth : 8 bits
Scan type : Progressive
Bits/(Pixel*Frame) : 0.141
Stream size : 1.06 GiB (89%)
Language : English
Default : Yes
Forced : No
Color range : Limited
Color primaries : BT.709
Transfer characteristics : BT.709
Matrix coefficients : BT.709

Audio #1
ID : 2
Format : AC-3
Format/Info : Audio Coding 3
Commercial name : Dolby Digital
Codec ID : A_AC3
Duration : 21 min 32 s
Bit rate mode : Constant
Bit rate : 192 kb/s
Channel(s) : 2 channels
Channel layout : L R
Sampling rate : 48.0 kHz
Frame rate : 31.250 FPS (1536 SPF)
Compression mode : Lossy
Stream size : 29.6 MiB (2%)
Title : MVO - Paramount Comedy
Language : Ukrainian
Service kind : Complete Main
Default : Yes
Forced : No

Audio #2
ID : 3
Format : E-AC-3
Format/Info : Enhanced AC-3
Commercial name : Dolby Digital Plus
Codec ID : A_EAC3
Duration : 21 min 33 s
Bit rate mode : Constant
Bit rate : 640 kb/s
Channel(s) : 6 channels
Channel layout : L R C LFE Ls Rs
Sampling rate : 48.0 kHz
Frame rate : 31.250 FPS (1536 SPF)
Compression mode : Lossy
Stream size : 98.7 MiB (8%)
Language : English
Service kind : Complete Main
Default : No
Forced : No

Text
ID : 4
Format : UTF-8
Codec ID : S_TEXT/UTF8
Codec ID/Info : UTF-8 Plain Text
Duration : 21 min 24 s
Bit rate : 132 b/s
Count of elements : 580
Stream size : 20.8 KiB (0%)
Language : English
Default : No
Forced : No
Скріншоти









Джерело:
Особиста оцінка: 10 - без зайвих вагань рекомендую всім!


Бронзовий реліз (на рейтинг впливає 75% завантаженого)
 Трекер:    Зареєстрований   

Завантажити / скачати серіал українською



відео для новачків



 Зареєстрований:   2020-06-05 21:13
 Розмір:   27.86 GB 
 Оцінка серіалу:   10/10 (Голосів: 8)
   
AV-7 
Новенький


З нами з: 31.01.12
Востаннє: 29.11.20
Повідомлень: 1

2020-04-18 18:26  
А 23-тя серія буде?
SurFutur 
VIP


З нами з: 12.03.15
Востаннє: 30.11.20
Повідомлень: 515

2020-06-04 17:11  
AV-7 написано:
А 23-тя серія буде?

Мають транслювати завтра зранку та в неділю ввечері: https://toloka.to/t6081-13290#1188060

Anonymous 







2020-06-05 21:13  
+ 23 серія
повний сезон

Neytreenor 
Відео Гуртом - запис з ТБ
Відео Гуртом - запис з ТБ


З нами з: 03.04.11
Востаннє: 30.11.20
Повідомлень: 2906

2020-06-06 16:46  
Українські субтитри на місце в 9-й серії, що було перекладено субтитрами: https://mega.nz/file/LI5UxIIK#5-qsbKHAvCltlABPSwY0bVmd9ys4xQRP9RO1N3HNEFQ. Переклад Paramount Comedy.
alienware 
Свій


З нами з: 20.12.09
Востаннє: 21.11.20
Повідомлень: 75

2020-07-03 21:09  
дуже дякую за серіал, сподобався нам із дружиною) можна навіть трохи паралелі проводити)
А чи є інформація про 7й сезон?

vavlap 
Свій


З нами з: 24.01.15
Востаннє: 29.11.20
Повідомлень: 134

2020-07-14 16:39  
Треба подивитись. Я дійшов до четвертого сезону і мене цікавить чи в шостому Еріка вже ходить до коледжу, в який вона вступила у другому сезоні, чи ще навчається в молодшій школі.
Anonymous 







2020-07-21 11:14  
vavlap
може бути сюжеьний спойлер
Вона ж навчалася і потім покинула його і рік просто була у пошуках себе

Ваш часовий пояс: GMT + 2 Години

Нова тема   Відповісти