Халепа / Trouble (2019) Remux 1080p Ukr/Eng

Нові коментарі

Нова тема   Відповісти
Автор Повідомлення
Anonymous 







2020-04-15 23:49  
Халепа / Trouble (2019) Remux 1080p


Жанр: комедія, мультфільм, сімейний
Країна: Канада, США, Кайманові острови



Кінокомпанія: 3QU Media, Cinesite Animation, Storyoscopic Films
Режисер: Кевін Джонсон
Ролі озвучують: Кевін Чемберлін, Колбі Лопес, Джейсон Мраз, Шер Ру, Біг Шон, Снуп Догг, Марісса Джерет Вінокур

Сюжет:
Спадкоємець мільйонного статку і купи невдячних родичів, розпещений пес на ім'я Халепа вийшов із зони комфорту і опинився на вулиці. Тепер він мріє повернутись додому. Для цього йому потрібно знайти нових друзів, позбутися настирливих білок і скинути з хвоста запеклого мисливця. Королівські канікули починаються.


Тривалість: 01:27:40
Якість: Blu-Ray Remux 1080p

Відео:
кодек:
розмір кадру: 1920x1080
бітрейт: 22600 Кбіт/с

Аудіо # 1:
мова: українська
переклад: професійний дубльований
кодек: 5.1
бітрейт: 384 кб/с

Аудіо # 2:
мова: українська
переклад: професійний дубльований
кодек: 2.0
бітрейт: 192 кб/с

Аудіо # 3:
мова: англійська
переклад: оригінал
кодек: 5.1
бітрейт: 448 кб/с

Аудіо # 4:
мова: англійська
переклад: оригінал
кодек: -HD MA 5.1
бітрейт: 1978 кб/с

Збережено оригінальні розділи, як на Blu-ray
Скріншоти


Info
Код:
General
Complete name                            : Trouble (2019) Blu-Ray Remux 1080p [Ukr_Eng] [ViDeO_Hurtom].
Format                                   :
Format version                           : Version 4
File size                                : 15.7 GiB
Duration                                 : 1 h 27 min
Overall bit rate mode                    : Variable
Overall bit rate                         : 25.6 Mb/s
Movie name                               : Халепа / Trouble (2019)
Encoded date                             : UTC 2020-04-16 09:38:51
Writing application                      : v44.0.0 ('Domino') 64-bit
Writing library                          : libebml v1.3.10 + v1.5.2
Cover                                    : Yes
Attachments                              : cover.jpg

Video
ID                                       : 1
Format                                   : AVC
Format/Info                              : Advanced Video Codec
Format profile                           : [email protected]
Format settings                          : CABAC / 4 Ref Frames
Format settings, CABAC                   : Yes
Format settings, RefFrames               : 4 frames
Codec ID                                 : V_MPEG4/ISO/AVC
Duration                                 : 1 h 27 min
Bit rate mode                            : Variable
Bit rate                                 : 22.6 Mb/s
Maximum bit rate                         : 30.0 Mb/s
Width                                    : 1 920 pixels
Height                                   : 1 080 pixels
Display aspect ratio                     : 16:9
Frame rate mode                          : Constant
Frame rate                               : 24.000 FPS
Standard                                 : NTSC
Color space                              : YUV
Chroma subsampling                       : 4:2:0
Bit depth                                : 8 bits
Scan type                                : Progressive
Bits/(Pixel*Frame)                       : 0.454
Stream size                              : 13.8 GiB (88%)
Language                                 : English
Default                                  : Yes
Forced                                   : No
Color range                              : Limited
Color primaries                          : BT.709
Transfer characteristics                 : BT.709
Matrix coefficients                      : BT.709

Audio #1
ID                                       : 2
Format                                   : AC-3
Format/Info                              : Audio Coding 3
Commercial name                          : Dolby Digital
Codec ID                                 : A_AC3
Duration                                 : 1 h 27 min
Bit rate mode                            : Constant
Bit rate                                 : 384 kb/s
Channel(s)                               : 6 channels
Channel layout                           : L R C LFE Ls Rs
Sampling rate                            : 48.0 kHz
Frame rate                               : 31.250 FPS (1536 SPF)
Bit depth                                : 16 bits
Compression mode                         : Lossy
Stream size                              : 240 MiB (1%)
Title                                    : 5.1 | 384
Language                                 : Ukrainian
Service kind                             : Complete Main
Default                                  : Yes
Forced                                   : No

Audio #2
ID                                       : 3
Format                                   : AC-3
Format/Info                              : Audio Coding 3
Commercial name                          : Dolby Digital
Codec ID                                 : A_AC3
Duration                                 : 1 h 27 min
Bit rate mode                            : Constant
Bit rate                                 : 192 kb/s
Channel(s)                               : 2 channels
Channel layout                           : L R
Sampling rate                            : 48.0 kHz
Frame rate                               : 31.250 FPS (1536 SPF)
Bit depth                                : 16 bits
Compression mode                         : Lossy
Stream size                              : 120 MiB (1%)
Title                                    : 2.0 | 192
Language                                 : Ukrainian
Service kind                             : Complete Main
Default                                  : No
Forced                                   : No

Audio #3
ID                                       : 4
Format                                   : AC-3
Format/Info                              : Audio Coding 3
Commercial name                          : Dolby Digital
Codec ID                                 : A_AC3
Duration                                 : 1 h 27 min
Bit rate mode                            : Constant
Bit rate                                 : 448 kb/s
Channel(s)                               : 6 channels
Channel layout                           : L R C LFE Ls Rs
Sampling rate                            : 48.0 kHz
Frame rate                               : 31.250 FPS (1536 SPF)
Bit depth                                : 16 bits
Compression mode                         : Lossy
Stream size                              : 281 MiB (2%)
Title                                    : 5.1 | 448
Language                                 : English
Service kind                             : Complete Main
Default                                  : No
Forced                                   : No

Audio #4
ID                                       : 5
Format                                   : XLL
Format/Info                              : Digital Theater Systems
Commercial name                          : -HD Master Audio
Codec ID                                 : A_DTS
Duration                                 : 1 h 27 min
Bit rate mode                            : Variable
Bit rate                                 : 1 978 kb/s
Channel(s)                               : 6 channels
Channel layout                           : C L R Ls Rs LFE
Sampling rate                            : 48.0 kHz
Frame rate                               : 93.750 FPS (512 SPF)
Bit depth                                : 16 bits
Compression mode                         : Lossless
Stream size                              : 1.21 GiB (8%)
Title                                    : -HD MA 5.1 | 1978
Language                                 : English
Default                                  : No
Forced                                   : No

Menu
00:00:00.000                             : en:Chapter 01
00:12:11.250                             : en:Chapter 02
00:23:03.292                             : en:Chapter 03
00:30:35.542                             : en:Chapter 04
00:43:59.792                             : en:Chapter 05
00:54:18.958                             : en:Chapter 06
01:06:18.000                             : en:Chapter 07
01:18:34.583                             : en:Chapter 08
Дякую Arsenfpu за допомогу в створені реліза
Джерело:
Особиста оцінка: 8 - мені сподобалося


Золотий реліз (завантажене не впливає на рейтинг)
 Трекер:    Зареєстрований   

Завантажити / скачати мультфільм українською



відео для новачків



 Зареєстрований:   2020-04-16 12:45
 Розмір:   15.69 GB 
 Оцінка мультфільму:   9.8/10 (Голосів: 4)
   
Інші релізи
   Халепа / Trouble (2019) Jatx_11  15 / 0   1.42 GB   2020-05-13 13:36 
   Халепа / Trouble (2019) AVC Ukr/Eng 11FrYkT  30 / 0   1.7 GB   2020-04-17 18:33 
   Халепа / Trouble (2019) 1080p Ukr/Eng staf777  13 / 0   7.36 GB   2020-04-16 12:43 
   Халепа / Trouble (2019) 720p Ukr/Eng antik_2008  8 / 0   3.99 GB   2020-04-16 11:35 
Anonymous 







2020-04-16 12:45  
Додано доріжку 5.1
Ваш часовий пояс: GMT + 2 Години

Нова тема   Відповісти