Самурай / Le samouraï (1967) Ukr/Fra

Нові коментарі

Нова тема   Відповісти
Автор Повідомлення
21jumpstreet 
VIP


З нами з: 03.07.12
Востаннє: 11.07.20
Повідомлень: 1095

2020-04-15 17:44  
Самурай / Le samouraï (1967) Ukr/Fra


Самурай / Le samouraï (1967) Ukr/Fra
Український постер


Жанр: кримінальний, драма, детектив
Країна: Франція



Кінокомпанія: Compagnie Industrielle et Commerciale Cinématographique (CICC)
Режисер: Жан-П'єр Мелвілль
Актори: Ален Делон, Франсуа Пер'є, Наталі Делон, Жак Леруа, Мішель Буарон, Робер Фавара, Жан-П'єр Позье, Катрін Журдан, Роже Фраде

Сюжет:
Жеф Кастелло небагатослівний і розважливий. Він - найманий вбивця, і у нього певний кодекс честі - кодекс бусідо. Однак після виконання чергового завдання за ним починають полювання і поліція, і замовники - через те, що є свідок злочину ...


Перекладено та озвучено студією "Цікава ідея" на замовлення HURTOM.COM


Тривалість: 01:45:27
Якість:
Відео:
кодек:
розмір кадру: 704 х 384
бітрейт: 1769 кб/с

Аудіо # 1:
мова: українська
переклад: багатоголосий закадровий
кодек: 1.0
бітрейт: 192 кб/с
Інформація про озвучення:
Українське озвучення створено на замовлення Hurtom.com в рамках проекту "Хочеш кіно українською? Замовляй!"

Дякуємо користувачам, що фінансово допомогли проекту:
Медяник, AlGor-1, deepzb11, Alien8, Hadron, OLENOCHKA1980, cheks, bordiur4yk, MarianB, foevtcov, Triffid, Назар Хочубий, Sheldon, maryana, Ялина, Arijl, andryk, ponedilok, Bushido, Sergo_k_s_v, slava_4, rudchenkos, Nazz80, deepfree, seitar, Yelovbasted, Тарас12, MisterR, MutuLI, willian, Dim-ON, victor_v, Skif3, at3s, vilnui, IvanB123456, cyclone2000, yarik_ratnik, Beneverfearful, kivan, virtus8hur, JoaJoa16, danyshtv, Aussie, Лунсар, nemos, sash.kr, Rost3, krotyk, nemos, stalker_cv, Demetrios, kino., Dars, NemoInFire, somnambula, sania2011, ppk21, Violator, freshwind
Також дякуємо 110 користувачам, що надали фінансову допомогу, але побажали бути анонімними.
Аудіо # 2: (окремо)
мова: французька
переклад: оригінал
кодек: 1.0
бітрейт: 192 кб/с
Скріншоти



Info
C:\Новая папка (2)\Le Samouraï (1967) [ukr] [Hurtom].avi
General
Complete name : C:\Новая папка (2)\Le Samouraï (1967) [ukr] [Hurtom].avi
Format : AVI
Format/Info : Audio Video Interleave
File size : 1.45 GiB
Duration : 1 h 45 min
Overall bit rate : 1 966 kb/s
Movie name : Le.Samourai.1967.Jean.Pierre.Melville
Director : HRIME
Writing application : VirtualDubMod 1.5.10.2 (build 2540/release)
Writing library : VirtualDubMod build 2540/release
Original source form/Name : Movie
Copyright : HQ-ViDEO
Comment : 29.01.2020
Video #0
ID : 0
Format : MPEG-4 Visual
Format profile : Advanced [email protected]
Format settings, BVOP : 1
Format settings, QPel : No
Format settings, GMC : No warppoints
Format settings, Matrix : Custom
Codec ID :
Codec ID/Hint :
Duration : 1 h 45 min
Bit rate : 1 769 kb/s
Width : 704 pixels
Height : 384 pixels
Display aspect ratio : 1.85:1
Frame rate : 23.976 (24000/1001) FPS
Color space : YUV
Chroma subsampling : 4:2:0
Bit depth : 8 bits
Scan type : Progressive
Compression mode : Lossy
Bits/(Pixel*Frame) : 0.273
Stream size : 1.30 GiB (90%)
Writing library : 67
Audio #1
ID : 1
Format : AC-3
Format/Info : Audio Coding 3
Mode extension : CM (complete main)
Format settings, Endianness : Big
Codec ID : 2000
Duration : 1 h 45 min
Bit rate mode : Constant
Bit rate : 192 kb/s
Channel(s) : 1 channel
Channel positions : Front: C
Sampling rate : 48.0 kHz
Frame rate : 31.250 FPS (1536 spf)
Compression mode : Lossy
Delay relative to video : 9 s 0 ms
Stream size : 145 MiB (10%)
Alignment : Split accross interleaves
Interleave, duration : 1293 ms (30.99 video frames)
Interleave, preload duration : 500 ms
Найвеличезніша та найщиріша подяка:
за постер - somnambula,
за витягнення доріжки - MakRa.
Джерело: &
Особиста оцінка: 10 - без зайвих вагань рекомендую всім!

Фільми, які було озвучено на замовлення Гуртом (допоможіть озвучити наступні):
М: Місто шукає вбивцю (1931)
Чарівник країни Оз (1939)
Великий диктатор (1940)
Громадянин Кейн (1941)
Подвійна страховка (1944)
Це дивовижне життя (1946)
Викрадачі велосипедів (1948)
Рашьомон (1950)
Сім самураїв (1954)
У випадку вбивства телефонуйте "М" (1954)
Дияволиці (1955)
Леді та Блудько (1955)
12 розгніваних чоловіків (1957)
Кривавий трон (1957)
Сьома печатка (1957)
На північ через північний захід (1959)
Більярдист (1961)
Охоронець (1961)
Вбити пересмішника (1962)
Людина, що вбила Ліберті Веленса (1962)
Вісім з половиною (1963)
Велика прогулянка (1966)
Як Ґрінч украв Різдво! (1966)
Випускник (1967)
Самурай (1967)
Одного разу на Дикому Заході (1968)
Коти-аристократи (1970)
Механічний апельсин (1971)
Навколо світу за 80 днів (1972)
Паперовий місяць (1973)
Китайський квартал (1974)
Пролітаючи над гніздом зозулі (1975)
Телемережа (1976)
Енні Голл (1977)
Мисливець на оленів (1978)
Буття Брайана за Монті Пайтоном (1979)
Коли я буду там (1979)
Мангеттен (1979)
Людина-слон (1980)
Приборкання норовливого (1980)
Скажений бик (1980)
Підводний човен (1981)
Ґанді (1982)
Король комедії (1982)
Різдвяна історія (1983)
Амадей (1984)
Просто кров (1984)
Барва пурпурова (1985)
Бразилія (1985)
Ран (1985)
Великий мишачий детектив (1986)
Небесний замок Лапута (1986)
Часи радіо (1987)
Акіра (1988)
Мій сусід Тоторо (1988)
Останній з могікан (1992)
Скажені пси (1992)
Шосе в нікуди (1997)
Американська історія Ікс (1998)
Страх і огида в Лас-Вегасі (1998)
Шоу Трумена (1998)
Догма (1999)
Магнолія (1999)
Сука любов (2000)
Нічия земля (2001)
Родина Тененбаумів (2001)
Тріо з Бельвіля (2003)
Труднощі перекладу (2003)
Бункер (2004)
Готель Руанда (2004)
Тренер Картер (2005)
Льодовиковий період 2 (2006)
Лабіринт Фавна (2006)
Людина з планети Земля (2007)
В тіні місяця (2007)
Голод (2008)
Іп Мен (2008)
Викрадена (2008)
Впусти мене (2008)
Хвиля (2008)
Містер Ніхто (2009)
13 вбивць (2010)
Бетмен: Під червоною маскою (2010)
Іп Мен 2 (2010)
Котяче життя (2010)
Позичайка Аріетті (2010)
Чорний Лебідь (2010)
Місто (2010)
Сенна (2010)
50/50 (2011)
Адвокат на лінкольні (2011)
Дерево життя (2011)
Опівночі в Парижі (2011)
Воїн (2011)
Драйв (2011)
Життя за один день (2011)
Укриття (2011)
Хижа в лісі (2011)
Рейд: Спокута (2011)
Акт вбивства (2012)
Арго (2012)
Безпека не гарантується (2012)
Викрадена 2 (2012)
Збірка промінців надії (2012)
Ернест і Селестіна (2012)
Звірі дикого Півдня (2012)
Лінкольн (2012)
Любов (2012)
Надійні хлопці (2012)
Паркер (2012)
Переваги скромників (2012)
Пліч-о-пліч (2012)
Полювання (2012)
Розірване коло (2012)
Суддя Дредд (2012)
Тридцять хвилин по півночі (2012)
Що б ви зробили (2012)
Американська афера (2013)
Виклик (2013)
Вона (2013)
Ворог (2013)
Всередині Л'ювіна Девіса (2013)
Джо (2013)
Зловісні мерці (2013)
Іда (2013)
Лок (2013)
Небраска (2013)
Неймовірна подорож містера Співета (2013)
Побічна дія (2013)
Перед північчю (2013)
Снігобур (2013)
Стокер (2013)
TPB: за межами клавіатури (2013)
Гниле місто (2013)
Бердмен (2014)
Вероніка Марс (2014)
Вроджена вада (2014)
Дика (2014)
Інтерв'ю (2014)
Святий Вінсент (2014)
Пісня моря (2014)
Призначення (2014)
Чим ми займаємося в тінях (2014)
Шеф-кухар (2014)
Безрідні звірі (2015)
Бруклін (2015)
Земля картелів (2015) нове
Кімната (2015)
Я, Ерл та помираюча дівчина (2015)
Манчестер біля моря (2016) нове
Нічні звірі (2016) нове


Авторський реліз (завантажувати можна без реєстрації)
 Трекер:    Зареєстрований   

Завантажити / скачати фільм українською



відео для новачків



 Зареєстрований:   2020-04-15 18:45
 Розмір:   1.59 GB 
 Оцінка фільму:   10/10 (Голосів: 6)
   
Інші релізи
   Самурай / Le samouraï (1967) Remux 1080p Ukr/Fra | Sub Eng MakRA  3 / 0   27.35 GB   2019-09-28 00:23 
   Самурай / Le Samouraï (1967) Ukr/Fra Цікава ідея  6 / 0   1.45 GB   2012-12-08 19:16 
Ваш часовий пояс: GMT + 2 Години

Нова тема   Відповісти