Liszt - Sardanapalo (Act I); Mazeppa - Joyce El-Khoury, Airam Hernández, Oleksandr Pushniak; Staatskapelle Weimar, Kirill Karabits

Нові коментарі

Нова тема   Відповісти
Останній раз роздавалося kolpavel (2021-03-05)
Автор Повідомлення
kolpavel 
VIP


З нами з: 04.05.14
Востаннє: 05.03.21
Повідомлень: 1375

2020-04-15 11:40  
Liszt - Sardanapalo (Act I); Mazeppa - Joyce El-Khoury, Airam Hernández, Oleksandr Pushniak; Staatskapelle Weimar, Kirill Karabits - (2019) [] | Classical

Liszt - Sardanapalo (Act I); Mazeppa - Joyce El-Khoury, Airam Hernández, Oleksandr Pushniak; Staatskapelle Weimar, Kirill Karabits


Стиль: Classical
Країна, місто: Україна, Київ
Видавець: Audite (№ за каталогом 97.764)
Виконавці:
Mirra - Joyce El-Khoury - soprano
Sardanapalo - Airam Hernández - tenor
Beleso - Oleksandr Pushniak (Олександр Пушняк) - bass-baritone

Opera Chorus Nationaltheater Weimar
Staatskapelle Weimar
Kirill Karabits (Карабиць Кирило).

Треклист:
    Franz Liszt

    [1] Mazeppa
    Symphonic Poem No.6, S. 100

    [2]-[19] Sardanapalo
    Act I, Scenes 1-4, S. 687 (unfinished opera), edited and orchestrated by David Trippett

Тривалість: 01:07:01
Мова: iталiйська
Аудіо-кодек:
Бітрейт: 665 кб/с
Джерело: трекер
Додаткова інформація:
EAC
Exact Audio Copy V1.3 from 2. September 2016

EAC extraction logfile from 25. May 2019, 16:54

Staatskapelle Weimar, Kirill Karabits / Liszt - Sardanapalo; Mazeppa

Used drive : ASUS SDRW-08U7M-U Adapter: 1 ID: 0

Read mode : Secure
Utilize accurate stream : Yes
Defeat audio cache : Yes
Make use of C2 pointers : No

Read offset correction : 6
Overread into Lead-In and Lead-Out : No
Fill up missing offset samples with silence : Yes
Delete leading and trailing silent blocks : No
Null samples used in CRC calculations : Yes
Used interface : Native Win32 interface for Win NT & 2000

Used output format : User Defined Encoder
Selected bitrate : 128 kBit/s
Quality : High
Add ID3 tag : No
Command line compressor : C:\Program Files (x86)\Exact Audio Copy\\.exe
Additional command line options : -V -8 -T "Date=%year%" -T "Genre=%genre%" %source%

TOC of the extracted CD

Track | Start | Length | Start sector | End sector
---------------------------------------------------------
1 | 0:00.00 | 15:32.68 | 0 | 69967
2 | 15:32.68 | 1:55.70 | 69968 | 78662
3 | 17:28.63 | 3:43.13 | 78663 | 95400
4 | 21:12.01 | 1:56.54 | 95401 | 104154
5 | 23:08.55 | 4:23.06 | 104155 | 123885
6 | 27:31.61 | 3:00.45 | 123886 | 137430
7 | 30:32.31 | 1:42.25 | 137431 | 145105
8 | 32:14.56 | 3:07.67 | 145106 | 159197
9 | 35:22.48 | 3:01.53 | 159198 | 172825
10 | 38:24.26 | 1:47.52 | 172826 | 180902
11 | 40:12.03 | 2:51.72 | 180903 | 193799
12 | 43:04.00 | 6:26.61 | 193800 | 222810
13 | 49:30.61 | 4:42.38 | 222811 | 243998
14 | 54:13.24 | 2:07.28 | 243999 | 253551
15 | 56:20.52 | 2:32.19 | 253552 | 264970
16 | 58:52.71 | 2:43.48 | 264971 | 277243
17 | 61:36.44 | 2:20.36 | 277244 | 287779
18 | 63:57.05 | 3:02.48 | 287780 | 301477

Range status and errors

Selected range

Filename C:\temp\Liszt - Sardanapalo; Mazeppa - Staatskapelle Weimar, Karabits - 2019\Liszt - Sardanapalo; Mazeppa.wav

Peak level 95.0 %
Extraction speed 4.9 X
Range quality 100.0 %
Test CRC 2379F3F1
Copy CRC 2379F3F1
Copy OK

No errors occurred

AccurateRip summary

Track 1 accurately ripped (confidence 2) [6245B675] (AR v2)
Track 2 accurately ripped (confidence 2) [225ACAE0] (AR v2)
Track 3 accurately ripped (confidence 2) [15E0D3A9] (AR v2)
Track 4 accurately ripped (confidence 2) [1A6B43A7] (AR v2)
Track 5 accurately ripped (confidence 2) [ED394D74] (AR v2)
Track 6 accurately ripped (confidence 2) [4657D9BE] (AR v2)
Track 7 accurately ripped (confidence 2) [46B99FCD] (AR v2)
Track 8 accurately ripped (confidence 2) [057426C6] (AR v2)
Track 9 accurately ripped (confidence 2) [66493DED] (AR v2)
Track 10 accurately ripped (confidence 2) [592615C3] (AR v2)
Track 11 accurately ripped (confidence 2) [F82E52FF] (AR v2)
Track 12 accurately ripped (confidence 2) [91F43BFD] (AR v2)
Track 13 accurately ripped (confidence 2) [411AE155] (AR v2)
Track 14 accurately ripped (confidence 2) [BD40AEA1] (AR v2)
Track 15 accurately ripped (confidence 2) [6AB302C8] (AR v2)
Track 16 accurately ripped (confidence 2) [5EE71A87] (AR v2)
Track 17 accurately ripped (confidence 2) [0EA14637] (AR v2)
Track 18 accurately ripped (confidence 2) [2988728C] (AR v2)

All tracks accurately ripped

End of status report

==== Log checksum ABBE1996040B54FCEE8A9E09A3D9CCBF5430C565583BF48B7297602B6435B84C ====
(.CUE)
REM GENRE Classical
REM DATE 2019
REM DISCID 0D0FB312
REM COMMENT "ExactAudioCopy v1.3"
PERFORMER "Staatskapelle Weimar, Kirill Karabits"
TITLE "Liszt - Sardanapalo; Mazeppa"
REM COMPOSER "Franz Liszt"
FILE "Liszt - Sardanapalo; Mazeppa." WAVE
TRACK 01 AUDIO
TITLE "Mazeppa"
PERFORMER "Staatskapelle Weimar, Kirill Karabits"
REM COMPOSER "Franz Liszt"
FLAGS DCP
INDEX 01 00:00:00
TRACK 02 AUDIO
TITLE "Sardanapalo - Scene I - Preludio"
PERFORMER "Staatskapelle Weimar, Kirill Karabits"
REM COMPOSER "Franz Liszt"
FLAGS DCP
INDEX 01 15:32:68
TRACK 03 AUDIO
TITLE "Sardanapalo - Scene I - 'Vieni! Risplendono festive faci' (Chor)"
PERFORMER "Staatskapelle Weimar, Kirill Karabits"
REM COMPOSER "Franz Liszt"
FLAGS DCP
INDEX 01 17:28:63
TRACK 04 AUDIO
TITLE "Sardanapalo - Scene I - 'Oh del tetto paterno' (Mirra)"
PERFORMER "Staatskapelle Weimar, Kirill Karabits"
REM COMPOSER "Franz Liszt"
FLAGS DCP
INDEX 01 21:12:01
TRACK 05 AUDIO
TITLE "Sardanapalo - Scene I - 'L'altera Ninive a te s'inchina' (Chor)"
PERFORMER "Staatskapelle Weimar, Kirill Karabits"
REM COMPOSER "Franz Liszt"
FLAGS DCP
INDEX 01 23:08:55
TRACK 06 AUDIO
TITLE "Sardanapalo - Scene II - 'Più lunga cura' (Mirra)"
PERFORMER "Staatskapelle Weimar, Kirill Karabits"
REM COMPOSER "Franz Liszt"
FLAGS DCP
INDEX 01 27:31:61
TRACK 07 AUDIO
TITLE "Sardanapalo - Scene II - 'Giù pel piano' (Mirra)"
PERFORMER "Staatskapelle Weimar, Kirill Karabits"
REM COMPOSER "Franz Liszt"
FLAGS DCP
INDEX 01 30:32:31
TRACK 08 AUDIO
TITLE "Sardanapalo - Scene II - 'Sogno vano' (Mirra)"
PERFORMER "Staatskapelle Weimar, Kirill Karabits"
REM COMPOSER "Franz Liszt"
FLAGS DCP
INDEX 01 32:14:56
TRACK 09 AUDIO
TITLE "Sardanapalo - Scene II - 'Ahi! Nell'ansio rapimento' (Mirra)"
PERFORMER "Staatskapelle Weimar, Kirill Karabits"
REM COMPOSER "Franz Liszt"
FLAGS DCP
INDEX 01 35:22:48
TRACK 10 AUDIO
TITLE "Sardanapalo - Scene III - 'Nella tua stanza' (Sardanapalo/Mirra)"
PERFORMER "Staatskapelle Weimar, Kirill Karabits"
REM COMPOSER "Franz Liszt"
FLAGS DCP
INDEX 01 38:24:26
TRACK 11 AUDIO
TITLE "Sardanapalo - Scene III - 'Parla! Parla!' (Sardanapalo/Mirra)"
PERFORMER "Staatskapelle Weimar, Kirill Karabits"
REM COMPOSER "Franz Liszt"
FLAGS DCP
INDEX 01 40:12:03
TRACK 12 AUDIO
TITLE "Sardanapalo - Scene III - 'Sotto il tuo sguardo' (Sardanapalo/Mirra)"
PERFORMER "Staatskapelle Weimar, Kirill Karabits"
REM COMPOSER "Franz Liszt"
FLAGS DCP
INDEX 01 43:04:00
TRACK 13 AUDIO
TITLE "Sardanapalo - Scene IV - 'Mentre a tuo danno' (Beleso)"
PERFORMER "Staatskapelle Weimar, Kirill Karabits"
REM COMPOSER "Franz Liszt"
FLAGS DCP
INDEX 01 49:30:61
TRACK 14 AUDIO
TITLE "Sardanapalo - Scene IV - 'Se sol l'armi' (Sardanapalo)"
PERFORMER "Staatskapelle Weimar, Kirill Karabits"
REM COMPOSER "Franz Liszt"
FLAGS DCP
INDEX 01 54:13:24
TRACK 15 AUDIO
TITLE "Sardanapalo - Scene IV - 'Oh perché, perché quel core' (Mirra/Beleso)"
PERFORMER "Staatskapelle Weimar, Kirill Karabits"
REM COMPOSER "Franz Liszt"
FLAGS DCP
INDEX 01 56:20:52
TRACK 16 AUDIO
TITLE "Sardanapalo - Scene IV - 'Che far pensi?' (Beleso/Sardanapalo/Mirra)"
PERFORMER "Staatskapelle Weimar, Kirill Karabits"
REM COMPOSER "Franz Liszt"
FLAGS DCP
INDEX 01 58:52:71
TRACK 17 AUDIO
TITLE "Sardanapalo - Scene IV - 'Diletta vergine' (Sardanapalo/Beleso/Mirra)"
PERFORMER "Staatskapelle Weimar, Kirill Karabits"
REM COMPOSER "Franz Liszt"
FLAGS DCP
INDEX 01 61:36:44
TRACK 18 AUDIO
TITLE "Sardanapalo - Scene IV - Allegro deciso"
PERFORMER "Staatskapelle Weimar, Kirill Karabits"
REM COMPOSER "Franz Liszt"
FLAGS DCP
INDEX 01 63:57:05


Якщо Ви справді бажаєте підтримати українське - після прослуховування, якщо музика вам сподобалась, придбайте ліцензійний диск. Підтримаймо вітчизняних виконавців!


Срібний реліз (на рейтинг впливає 50% завантаженого)
 Трекер:    Зареєстрований   

Завантажити / скачати українську музику



відео для новачків



 Зареєстрований:   2020-04-15 12:02
 Розмір:   327 MB 
 Оцінка музики:   10/10 (Голосів: 2)
   
Ваш часовий пояс: GMT + 2 Години

Нова тема   Відповісти