Мисливець на оленів / The Deer hunter (1978) AVC 2xUkr/Eng | Sub Eng

Нові коментарі

Нова тема   Відповісти
Автор Повідомлення
21jumpstreet 
VIP


З нами з: 03.07.12
Востаннє: 14.07.20
Повідомлень: 1096

2020-04-14 23:19  
Мисливець на оленів / The Deer hunter (1978) AVC 2xUkr/Eng | Sub Eng


Мисливець на оленів / The Deer hunter (1978) AVC 2xUkr/Eng | Sub Eng
Український постер
Нагороди та номінації:
Оскар, 1979 рік
Переможець (5):
Найкращий фільм
Найкраща чоловіча другорядна роль (Крістофер Вокен)
Найкращий режисер (Майкл Чіміно)
Найкращий звук
Найкращий монтаж

Золотий глобус, 1979 рік
Переможець (1):
Найкращий режисер (Майкл Чіміно

Британська академія кіно та телевізійного мистецтва, 1979 рік
Переможець (2):
Найкраща робота оператора
Найкращий монтаж


Жанр: військовий, драма
Країна: США


Кінокомпанія: Universal Pictures
Режисер: Майкл Чіміно
Актори: Роберт Де Ніро, Крістофер Уокен, Джон Казале, Меріл Стріп та інші

Сюжет:
Майкл, Стівен та Нік - молоді робітники на фабриці у Пенсильванії. Майкл та Нік закохані у Лінду, яка, здається, жонглює обома хлопцями. Все змінилося, коли вони записалися до армії, щоб воювати у В'єтнамі. До відльоту, Стівен одружується із вагітною Анжелою і їхнє весілля стає прощальної вечіркою для хлопців. Через якийсь час, переживши жахи війни, троє друзів потрапляють у полон до В'єтконгівців. Вони опиняються у таборі для полонених, де вимушені грати у "російську рулетку" один проти одного. Друзям вдається втекти з табору, але їхні життя змінилися назавжди. Нік залишається у В'єтнамі, Майкл повертається до Лінди, а Стівен стає калікою, втративши ноги на війні. Натхненням для створення фільму послужив роман Еріх Марія Ремарка «Три товариші».


Тривалість: 03:03:43
Якість:
Відео:
кодек:
розмір кадру: 1024 х 768
бітрейт: 2500 кб/с

Аудіо # 1:
мова: українська
переклад: багатоголосий закадровий
кодек: 5.1
бітрейт: 448 кб/с
Інформація про озвучення:
Українське озвучення створено студією ТО "Цікава ідея" на замовлення Hurtom.com в рамках проекту "Хочеш кіно українською? Замовляй!"
Дякуємо користувачам, що фінансово допомогли проекту:
vifilo, yuvial, Zoryan71, bookovina, sunshadow, novns, Анонім, TriVVet, Qualcuno, ValicV, makata, painz, Шейнога Станіслав, Відьмачечок, sl.adamenko, Ihorco, vladyk, vitbol, k1k1k1, oleh_oleh, mikrom, roman.paint, chuba001, merlin_zaraza, daedan, zeleneserce, Yareban, BrMM, maksimka9112007, bsdkom, avatararij, Thaddeus, Slavko Uzhhorod, OLENKA1980, yarik_ratnik, brizident, parovoz, glogus, indiana7, rakab, grim86, bondar, ratiborsky, hello_world, Klymkiv_a, Mitrukhin, govjiogter, loiknazar, Анонім, zanevsky, КОЗАК СЕРГІЙ, "Мерзотники", Thaddeus, newvolya, Макрос, Loki, romm77, maxus.bender, Arhont, Kalynka Rosso, molotokk, Sn00pY_UA, busbus, гілка, Qualcuno, Rost3, анонім, panernest, tyma1, Vasill, орестт, vkozak77, sanyatyoma, zinkognito, fishMD, olfed111, ThugRx, serzholino16x, Yarrm, zolotoy, Volodymyr Shpikulov, partos, MisterR, lan44er, StiN, pooh007, gitaralover, Dmytro D, Avis, ivasykvv, TarasTaras, Bzick, Romdoc, kopycom, ExFinder, Roman N, B_Volodumur, alexandr_b, thefir, Dimka, somnambula, Оксана Середа, Роман Бліхарський, MarianB, sania2011, Makovej, ORFEO, Dim-ON, demydd, igor911, Golota, ppk21, MutuLI, Анонім, Джерх, Гривник, Chaka_bum, elwolf, virtus8hur, Sergo_k_s_v, NemoInFire, willian
Також дякуємо користувачам, що надали фінансову допомогу, але побажали бути анонімними.
Аудіо # 2:
мова: українська
переклад: багатоголосий закадровий
кодек: 2.0
бітрейт: 192 кб/с
Інформація про озвучення:
Ролі озвучили: Михайло Войчук, Андрій Альохін, Ніна Касторф та один жіночий
Аудіо # 3:
мова: англійська
переклад: оригінал
кодек: 5.1
бітрейт: 448 кб/с
Скріншоти



Info
C:\The Deer Hunter (1978) AVC [2xUkr,Eng] [Hurtom].
General
Unique ID : 327676386400189604485944712903978915666 (0xF6842D2CB9276C8D9D9D663DBF581752)
Complete name : C:\The Deer Hunter (1978) AVC [2xUkr,Eng] [Hurtom].
Format :
Format version : Version 4 / Version 2
File size : 4.61 GiB
Duration : 3 h 3 min
Overall bit rate : 3 589 kb/s
Movie name : The Deer Hunter (1978) AVC [2xUkr,Eng] [Hurtom]
Encoded date : UTC 2020-04-15 19:05:01
Writing application : v22.0.0 ('At The End Of The World') 32-bit
Writing library : libebml v1.3.5 + v1.4.8
Video #1
ID : 1
Format : AVC
Format/Info : Advanced Video Codec
Format profile : [email protected]
Format settings, CABAC : Yes
Format settings, ReFrames : 10 frames
Codec ID : V_MPEG4/ISO/AVC
Duration : 3 h 3 min
Bit rate : 2 500 kb/s
Width : 1 024 pixels
Height : 436 pixels
Display aspect ratio : 2.35:1
Frame rate mode : Constant
Frame rate : 23.976 (24000/1001) FPS
Color space : YUV
Chroma subsampling : 4:2:0
Bit depth : 8 bits
Scan type : Progressive
Bits/(Pixel*Frame) : 0.234
Stream size : 3.21 GiB (70%)
Writing library : core 142 r2409+42 04be48a tMod [[email protected]:2:0 X86]
Encoding settings : cabac=1 / ref=10 / deblock=1:-3:-2 / analyse=0x3:0x133 / me=umh / subme=11 / psy=1 / fade_compensate=0.00 / psy_rd=1.00:0.15 / mixed_ref=1 / me_range=32 / chroma_me=1 / trellis=2 / 8x8dct=1 / cqm=0 / deadzone=21,11 / fast_pskip=0 / chroma_qp_offset=-3 / threads=6 / lookahead_threads=1 / sliced_threads=0 / nr=0 / decimate=0 / interlaced=0 / bluray_compat=0 / constrained_intra=0 / fgo=0 / bframes=10 / b_pyramid=2 / b_adapt=2 / b_bias=0 / direct=3 / weightb=1 / open_gop=0 / weightp=2 / keyint=240 / keyint_min=23 / scenecut=40 / intra_refresh=0 / rc=2pass / mbtree=0 / bitrate=2500 / ratetol=1.0 / qcomp=0.60 / qpmin=0:0:0 / qpmax=69:69:69 / qpstep=4 / cplxblur=20.0 / qblur=0.5 / ip_ratio=1.40 / pb_ratio=1.30 / aq=2:1.00 / aq-sensitivity=10.00 / aq-factor=1.00:1.00:1.00 / aq2=0 / aq3=0
Language : English
Default : Yes
Forced : No
Audio #2
ID : 2
Format : AC-3
Format/Info : Audio Coding 3
Mode extension : CM (complete main)
Format settings, Endianness : Big
Codec ID : A_AC3
Duration : 3 h 3 min
Bit rate mode : Constant
Bit rate : 448 kb/s
Channel(s) : 6 channels
Channel positions : Front: L C R, Side: L R, LFE
Sampling rate : 48.0 kHz
Frame rate : 31.250 FPS (1536 spf)
Compression mode : Lossy
Stream size : 588 MiB (12%)
Title : Deer Hunter (1978) Цікава Ідея
Language : Ukrainian
Default : Yes
Forced : No
Audio #3
ID : 3
Format : AC-3
Format/Info : Audio Coding 3
Mode extension : CM (complete main)
Format settings, Endianness : Big
Codec ID : A_AC3
Duration : 3 h 3 min
Bit rate mode : Constant
Bit rate : 192 kb/s
Channel(s) : 2 channels
Channel positions : Front: L R
Sampling rate : 48.0 kHz
Frame rate : 31.250 FPS (1536 spf)
Compression mode : Lossy
Stream size : 252 MiB (5%)
Title : The Deer Hunter (1978) НЛО ТБ
Language : Ukrainian
Default : No
Forced : No
Audio #4
ID : 4
Format : AC-3
Format/Info : Audio Coding 3
Mode extension : CM (complete main)
Format settings, Endianness : Big
Codec ID : A_AC3
Duration : 3 h 3 min
Bit rate mode : Constant
Bit rate : 448 kb/s
Channel(s) : 6 channels
Channel positions : Front: L C R, Side: L R, LFE
Sampling rate : 48.0 kHz
Frame rate : 31.250 FPS (1536 spf)
Compression mode : Lossy
Stream size : 589 MiB (12%)
Language : English
Default : No
Forced : No
Text #5
ID : 5
Format : UTF-8
Codec ID : S_TEXT/UTF8
Codec ID/Info : UTF-8 Plain Text
Duration : 2 h 57 min
Bit rate : 40 b/s
Count of elements : 2247
Stream size : 53.1 KiB (0%)
Language : English
Default : No
Forced : No
Субтитри:
мова: англійська | повні
тип: програмні (м'які)
формат: *.srt


Величезна та найщиріша подяка:

Запис звуку з ТБ: Bohdan237
Зведення до обох доріжок: -_-B_Е_N_D_E_R-_-

Виготовлення локалізованого постера: DanyZemlyanoy


Авторський реліз (завантажувати можна без реєстрації)
 Трекер:    Зареєстрований   

Завантажити / скачати фільм українською



відео для новачків



 Зареєстрований:   2020-04-15 22:34
 Розмір:   4.61 GB 
 Оцінка фільму:   9.7/10 (Голосів: 12)
   
bot 
робот


З нами з: 30.09.07
Востаннє: 26.05.05
Повідомлень: 25060

2020-04-14 23:19  
Тему перенесено з Фільми до форуму Анонси релізів


21jumpstreet

qwasasqw 
VIP


З нами з: 01.01.11
Востаннє: 15.07.20
Повідомлень: 1017

2020-04-14 23:22  
Фільм шедевр.Цікаво яка нова доріжка там ще..Чекаємо)
21jumpstreet 
VIP


З нами з: 03.07.12
Востаннє: 14.07.20
Повідомлень: 1096

2020-04-14 23:25  
qwasasqw
Нло тб

qwasasqw 
VIP


З нами з: 01.01.11
Востаннє: 15.07.20
Повідомлень: 1017

2020-04-14 23:30  
21jumpstreet
Супер. Буде привід передивитися фільм з новим озвученням)

Аркадій Дзиґа 
VIP


З нами з: 09.10.14
Востаннє: 15.07.20
Повідомлень: 427

2020-04-14 23:59  
qwasasqw
Для Мене дуже важка постановка - у Жовтні 1995-го року Студія "1+1" транслювала "Мисливця на оленів" у Своїй Четверговій рубриці "Кращі з кращих".

R.V.V. 
Поважний учасник


З нами з: 09.03.19
Востаннє: 12.07.20
Повідомлень: 222

2020-04-15 00:12  
Творці Call of Duty: Black Ops (2010) черпали ідеї з цього фільму.
[Captain] 
Попереджень: 1
Попереджень: 1 


З нами з: 19.02.12
Востаннє: 13.07.20
Повідомлень: 2324

2020-04-15 09:13  
Фільм неймовірний
omm 
Відео Гуртом - фільмокрай
Відео Гуртом - фільмокрай


З нами з: 12.06.12
Востаннє: 14.07.20
Повідомлень: 2413

2020-04-15 12:25  
На днях подивився. Дуже потужний фільм. Що цікаво, весь громіздкий, гостросоціальний сюжет був побудований сценаристами навколо гри російської рулетки
R.V.V. 
Поважний учасник


З нами з: 09.03.19
Востаннє: 12.07.20
Повідомлень: 222

2020-04-15 12:36  
Сподобався?! Ось вам наступний: Heaven's Gate [Director's Cut] (1980).
bot 
робот


З нами з: 30.09.07
Востаннє: 26.05.05
Повідомлень: 25060

2020-04-15 22:34  
Тему перенесено з Анонси релізів до форуму Фільми


21jumpstreet

Ваш часовий пояс: GMT + 2 Години

Нова тема   Відповісти