Відеофайл Deer Hunter

Нові коментарі

Нова тема   Відповісти
Автор Повідомлення
21jumpstreet 
VIP


З нами з: 03.07.12
Востаннє: 25.09.20
Повідомлень: 1237

2020-04-14 19:49  
Чому в програмі mkvtoolnix не відкривається відеофайл the deer hunter 1978? Важить 7,4 ГБ. Якщо хто може зробіть sd.
-_-B_Е_N_D_E_R-_- 
VIP


З нами з: 04.03.20
Востаннє: 25.09.20
Повідомлень: 544

2020-04-14 20:06  
Та хоча б медіаінфо скинь
21jumpstreet 
VIP


З нами з: 03.07.12
Востаннє: 25.09.20
Повідомлень: 1237

2020-04-14 21:01  
-_-B_Е_N_D_E_R-_-
це файл на 7.4 ГБ
Info
General
Unique ID : 216359406097016951494687554223340952265 (0xA2C54E4F25FBC0AA88B35F9CDD669AC9)
Complete name : F:ФильмыКлассикаОхотник.на.оленей.1978..AVC.3хПМ.4хАП.
Format :
Format version : Version 2
File size : 7.40 GiB
Duration : 3 h 3 min
Overall bit rate : 5 767 kb/s
Movie name : HANSMER
Encoded date : UTC 2015-05-10 08:28:31
Writing application : v4.0.0 ('The Stars were mine') сборка от Jun 6 2010 16:18:42
Writing library : libebml v1.0.0 + v1.0.0

Video
ID : 1
Format : AVC
Format/Info : Advanced Video Codec
Format profile : [email protected]
Format settings : CABAC / 10 Ref Frames
Format settings, CABAC : Yes
Format settings, ReFrames : 10 frames
Codec ID : V_MPEG4/ISO/AVC
Duration : 3 h 3 min
Bit rate : 2 500 kb/s
Width : 1 024 pixels
Height : 436 pixels
Display aspect ratio : 2.35:1
Frame rate mode : Constant
Frame rate : 23.976 (24000/1001) FPS
Color space : YUV
Chroma subsampling : 4:2:0
Bit depth : 8 bits
Scan type : Progressive
Bits/(Pixel*Frame) : 0.234
Stream size : 3.06 GiB (41%)
Writing library : core 142 r2409+42 04be48a tMod [[email protected]:2:0 X86]
Encoding settings : cabac=1 / ref=10 / deblock=1:-3:-2 / analyse=0x3:0x133 / me=umh / subme=11 / psy=1 / fade_compensate=0.00 / psy_rd=1.00:0.15 / mixed_ref=1 / me_range=32 / chroma_me=1 / trellis=2 / 8x8dct=1 / cqm=0 / deadzone=21,11 / fast_pskip=0 / chroma_qp_offset=-3 / threads=6 / lookahead_threads=1 / sliced_threads=0 / nr=0 / decimate=0 / interlaced=0 / bluray_compat=0 / constrained_intra=0 / fgo=0 / bframes=10 / b_pyramid=2 / b_adapt=2 / b_bias=0 / direct=3 / weightb=1 / open_gop=0 / weightp=2 / keyint=240 / keyint_min=23 / scenecut=40 / intra_refresh=0 / rc=2pass / mbtree=0 / bitrate=2500 / ratetol=1.0 / qcomp=0.60 / qpmin=0:0:0 / qpmax=69:69:69 / qpstep=4 / cplxblur=20.0 / qblur=0.5 / ip_ratio=1.40 / pb_ratio=1.30 / aq=2:1.00 / aq-sensitivity=10.00 / aq-factor=1.00:1.00:1.00 / aq2=0 / aq3=0
Language : English
Default : No
Forced : No
Statistics Tags Issue : v7.7.0 ('Six Voices') 32bit built on Feb 28 2015 23:23:00 2015-03-03 20:06:31 / v4.0.0 ('The Stars were mine') сборка от Jun 6 2010 16:18:42 2015-05-10 08:28:31
FromStats_BitRate : 2499203
FromStats_Duration : 03:03:43.096000000
FromStats_FrameCount : 264290
FromStats_StreamSize : 3443619429

Audio #1
ID : 2
Format : AC-3
Format/Info : Audio Coding 3
Codec ID : A_AC3
Duration : 3 h 3 min
Bit rate mode : Constant
Bit rate : 448 kb/s
Channel(s) : 6 channels
Channel positions : Front: L C R, Side: L R, LFE
Sampling rate : 48.0 kHz
Frame rate : 31.250 FPS (1536 SPF)
Bit depth : 16 bits
Compression mode : Lossy
Stream size : 589 MiB (8%)
Title : Многоголосый (Экстрабит-Амальгама)
Language : Russian
Service kind : Complete Main
Default : No
Forced : No
Statistics Tags Issue : v7.7.0 ('Six Voices') 32bit built on Feb 28 2015 23:23:00 2015-03-03 20:06:31 / v4.0.0 ('The Stars were mine') сборка от Jun 6 2010 16:18:42 2015-05-10 08:28:31
FromStats_BitRate : 448000
FromStats_Duration : 03:03:43.072000000
FromStats_FrameCount : 344471
FromStats_StreamSize : 617292032

Audio #2
ID : 3
Format : AC-3
Format/Info : Audio Coding 3
Codec ID : A_AC3
Duration : 3 h 3 min
Bit rate mode : Constant
Bit rate : 384 kb/s
Channel(s) : 6 channels
Channel positions : Front: L C R, Side: L R, LFE
Sampling rate : 48.0 kHz
Frame rate : 31.250 FPS (1536 SPF)
Bit depth : 16 bits
Compression mode : Lossy
Stream size : 505 MiB (7%)
Title : Многоголосый (Киномания)
Language : Russian
Service kind : Complete Main
Default : No
Forced : No
Statistics Tags Issue : v7.7.0 ('Six Voices') 32bit built on Feb 28 2015 23:23:00 2015-03-03 20:06:31 / v4.0.0 ('The Stars were mine') сборка от Jun 6 2010 16:18:42 2015-05-10 08:28:31
FromStats_BitRate : 384000
FromStats_Duration : 03:03:43.072000000
FromStats_FrameCount : 344471
FromStats_StreamSize : 529107456

Audio #3
ID : 4
Format : AC-3
Format/Info : Audio Coding 3
Codec ID : A_AC3
Duration : 3 h 3 min
Bit rate mode : Constant
Bit rate : 192 kb/s
Channel(s) : 2 channels
Channel positions : Front: L R
Sampling rate : 48.0 kHz
Frame rate : 31.250 FPS (1536 SPF)
Bit depth : 16 bits
Compression mode : Lossy
Stream size : 252 MiB (3%)
Title : Многоголосый (Нева-1)
Language : Russian
Service kind : Complete Main
Default : No
Forced : No

Audio #4
ID : 5
Format : AC-3
Format/Info : Audio Coding 3
Codec ID : A_AC3
Duration : 3 h 3 min
Bit rate mode : Constant
Bit rate : 448 kb/s
Channel(s) : 6 channels
Channel positions : Front: L C R, Side: L R, LFE
Sampling rate : 48.0 kHz
Frame rate : 31.250 FPS (1536 SPF)
Bit depth : 16 bits
Compression mode : Lossy
Stream size : 589 MiB (8%)
Title : Живов
Language : Russian
Service kind : Complete Main
Default : No
Forced : No
Statistics Tags Issue : v7.7.0 ('Six Voices') 32bit built on Feb 28 2015 23:23:00 2015-03-03 20:06:31 / v4.0.0 ('The Stars were mine') сборка от Jun 6 2010 16:18:42 2015-05-10 08:28:31
FromStats_BitRate : 448000
FromStats_Duration : 03:03:43.104000000
FromStats_FrameCount : 344472
FromStats_StreamSize : 617293824

Audio #5
ID : 6
Format : AC-3
Format/Info : Audio Coding 3
Codec ID : A_AC3
Duration : 3 h 3 min
Bit rate mode : Constant
Bit rate : 448 kb/s
Channel(s) : 6 channels
Channel positions : Front: L C R, Side: L R, LFE
Sampling rate : 48.0 kHz
Frame rate : 31.250 FPS (1536 SPF)
Bit depth : 16 bits
Compression mode : Lossy
Stream size : 589 MiB (8%)
Title : Сербин
Language : Russian
Service kind : Complete Main
Default : No
Forced : No
Statistics Tags Issue : v7.7.0 ('Six Voices') 32bit built on Feb 28 2015 23:23:00 2015-03-03 20:06:31 / v4.0.0 ('The Stars were mine') сборка от Jun 6 2010 16:18:42 2015-05-10 08:28:31
FromStats_BitRate : 448000
FromStats_Duration : 03:03:43.072000000
FromStats_FrameCount : 344471
FromStats_StreamSize : 617292032

Audio #6
ID : 7
Format : AC-3
Format/Info : Audio Coding 3
Codec ID : A_AC3
Duration : 3 h 3 min
Bit rate mode : Constant
Bit rate : 448 kb/s
Channel(s) : 6 channels
Channel positions : Front: L C R, Side: L R, LFE
Sampling rate : 48.0 kHz
Frame rate : 31.250 FPS (1536 SPF)
Bit depth : 16 bits
Compression mode : Lossy
Stream size : 589 MiB (8%)
Title : Горчаков
Language : Russian
Service kind : Complete Main
Default : No
Forced : No
Statistics Tags Issue : v7.7.0 ('Six Voices') 32bit built on Feb 28 2015 23:23:00 2015-03-03 20:06:31 / v4.0.0 ('The Stars were mine') сборка от Jun 6 2010 16:18:42 2015-05-10 08:28:31
FromStats_BitRate : 448000
FromStats_Duration : 03:03:43.104000000
FromStats_FrameCount : 344472
FromStats_StreamSize : 617293824

Audio #7
ID : 8
Format : AC-3
Format/Info : Audio Coding 3
Codec ID : A_AC3
Duration : 3 h 3 min
Bit rate mode : Constant
Bit rate : 448 kb/s
Channel(s) : 6 channels
Channel positions : Front: L C R, Side: L R, LFE
Sampling rate : 48.0 kHz
Frame rate : 31.250 FPS (1536 SPF)
Bit depth : 16 bits
Compression mode : Lossy
Stream size : 589 MiB (8%)
Title : Котов
Language : Russian
Service kind : Complete Main
Default : Yes
Forced : No

Audio #8
ID : 9
Format : AC-3
Format/Info : Audio Coding 3
Codec ID : A_AC3
Duration : 3 h 3 min
Bit rate mode : Constant
Bit rate : 448 kb/s
Channel(s) : 6 channels
Channel positions : Front: L C R, Side: L R, LFE
Sampling rate : 48.0 kHz
Frame rate : 31.250 FPS (1536 SPF)
Bit depth : 16 bits
Compression mode : Lossy
Stream size : 589 MiB (8%)
Language : English
Service kind : Complete Main
Default : No
Forced : No
Statistics Tags Issue : v7.7.0 ('Six Voices') 32bit built on Feb 28 2015 23:23:00 2015-03-03 20:06:31 / v4.0.0 ('The Stars were mine') сборка от Jun 6 2010 16:18:42 2015-05-10 08:28:31
FromStats_BitRate : 448000
FromStats_Duration : 03:03:43.072000000
FromStats_FrameCount : 344471
FromStats_StreamSize : 617292032

Text #1
ID : 10
Format : UTF-8
Codec ID : S_TEXT/UTF8
Codec ID/Info : UTF-8 Plain Text
Language : Russian
Default : No
Forced : No
Statistics Tags Issue : v7.7.0 ('Six Voices') 32bit built on Feb 28 2015 23:23:00 2015-03-03 20:06:31 / v4.0.0 ('The Stars were mine') сборка от Jun 6 2010 16:18:42 2015-05-10 08:28:31
FromStats_BitRate : 36
FromStats_Duration : 02:59:25.859000000
FromStats_FrameCount : 1596
FromStats_StreamSize : 48697

Text #2
ID : 11
Format : UTF-8
Codec ID : S_TEXT/UTF8
Codec ID/Info : UTF-8 Plain Text
Language : English
Default : No
Forced : No
Statistics Tags Issue : v7.7.0 ('Six Voices') 32bit built on Feb 28 2015 23:23:00 2015-03-03 20:06:31 / v4.0.0 ('The Stars were mine') сборка от Jun 6 2010 16:18:42 2015-05-10 08:28:31
FromStats_BitRate : 40
FromStats_Duration : 02:57:30.623000000
FromStats_FrameCount : 2247
FromStats_StreamSize : 54393
[/quote]

Додано через 2 хвилини 15 секунд:

Проблема в тому, що відео файл не хоче відкриватися просто висне комп і все. Тільки програму тулнікс закривається примусово. Це розмір в 7.4 ГБ.
igor911 
Модератор відео


З нами з: 18.01.08
Востаннє: 25.09.20
Повідомлень: 15006

2020-04-14 21:05  
21jumpstreet написано:
просто висне комп і все.

файл довантажений? відремонтувати вінт/комп/пз треба
-_-B_Е_N_D_E_R-_- 
VIP


З нами з: 04.03.20
Востаннє: 25.09.20
Повідомлень: 544

2020-04-14 21:12  
21jumpstreet
Розклади той файл на потоки і тоді спробуй змуксувати
Eac3to - до прикладу, на потоки розкладає
Закинь у нього файл і натисни -demux
MutuLI 
Відео Гуртом - фільмокрай
Відео Гуртом - фільмокрай


З нами з: 08.03.09
Востаннє: 24.09.20
Повідомлень: 1946

2020-04-14 21:47  
попробуй якусь іншу версію програми mkvtoolnix, старішу або новішу.
ssTAss 
Модератор музики


З нами з: 05.07.08
Востаннє: 25.09.20
Повідомлень: 16796

2020-04-14 22:24  
нормальний комп... український)
7 кацапських доріжок, хто би то відкривав)))
kryk-v.ya. 
Попереджень: 1
Попереджень: 1 


З нами з: 14.02.14
Востаннє: 25.09.20
Повідомлень: 2243

2020-04-14 22:29  
21jumpstreet написано:
Чому в програмі mkvtoolnix не відкривається відеофайл the deer hunter 1978? Важить 7,4 ГБ. Якщо хто може зробіть sd.

у мене бул щось на подобі...
я б пробував змінити назву файлу...це просто глюк і все.
Ваш часовий пояс: GMT + 2 Години

Нова тема   Відповісти