Кінь БоДжек (Сезон 6) / BoJack Horseman (Season 6) (2019-2020) 1080p Ukr/Eng

Нові коментарі

Нова тема   Відповісти
Автор Повідомлення
simpsonsua 
VIP


З нами з: 13.03.18
Востаннє: 10.04.21
Повідомлень: 357

2020-04-13 21:36  
AVC | 1080p

Кінь БоДжек (Сезон 6) / BoJack Horseman (Season 6) (2019-2020) 1080p Ukr/Eng


Кінь БоДжек (Сезон 6) / BoJack Horseman (Season 6) (2019-2020) 1080p Ukr/Eng


Якщо вам сподобалося озвучення мультсеріалу,
то ви можете підтримати нас за посиланням
ТИЦЬ


Жанр: сатира, трагікомедія, драма, фарс
Країна: США



Кінокомпанія: Tornante Company, ShadowMachine, Netflix
Режисер: Рафаель Боб-Ваксберґ
Актори/ролі озвучують: Вілл Арнетт, Емі Седаріс, Елісон Брі, Аарон Пол та інші

Сюжет:
Дія відбувається в світі, населеному антропоморфними тваринами і людьми. Велика частина сюжету відбувається в Лос-Анджелесі. БоДжек — зірка ситуаційної комедії «Викинути коника», популярної наприкінці 80-х — початку 90-х років. На момент часу, висвітлений у серіалі, БоДжек переживає кризу середнього віку. У спробах повернути колишню популярність і любов публіки БоДжек намагається написати автобіографічну книгу. Але не справляється з цим через власну лінь. Після умовлянь агента і видавця БоДжек наймає письменницю Даєн Нґуєн, яка проводить з ним багато часу, інтерв'юючи його і дізнаючись про його минуле і роботу в серіалі.


Перекладено та озвучено студією сайту simpsonsua.tv за підтримки fishMD


Тривалість: 1 серія: 24 хв. (цілком серій: 16)
Перелік серій

01. A Horse Walks into a Rehab
02. The New Client
03. Feel-Good Story
04. Surprise!
05. A Little Uneven, Is All
06. The Kidney Stays in the Picture
07. The Face of Depression
08. A Quick One, While He's Away
09. Intermediate Scene Study w/ BoJack Horseman
10. Good Damage
11. Sunk Cost and All That
12. Xerox of a Xerox
13. The Horny Unicorn
14. Angela
15. The View from Halfway Down
16. Nice While It Lasted
Якість: 1080p
Відео:
кодек:
розмір кадру: 1920 х 1080
бітрейт: ~ 8 000 кб/с

Аудіо # 1:
мова: українська | "simpsonsua.tv"
озвучення: професійне багатоголосе закадрове
кодек: 5.1
бітрейт: 448 кб/с

Аудіо # 2:
мова: англійська
переклад: оригінал
кодек: E- 5.1
бітрейт: 640 kb/s
Info
Format :
Format version : Version 4
File size : 904 MiB
Duration : 25 min 28 s
Overall bit rate mode : Variable
Overall bit rate : 4 964 kb/s
Movie name : Кінь БоДжек / BoJack Horseman - S06E01 (2019) 1080p [Ukr.Eng] [simpsonsua.tv]
Encoded date : UTC 2020-04-18 19:58:36
Writing application : v6.8.0 ('Theme for Great Cities') 32bit built on Mar 2 2014 21:27:07
Writing library : libebml v1.3.0 + v1.4.1

Video
ID : 1
Format : AVC
Format/Info : Advanced Video Codec
Format profile : [email protected]
Format settings : CABAC / 3 Ref Frames
Format settings, CABAC : Yes
Format settings, Reference : 3 frames
Codec ID : V_MPEG4/ISO/AVC
Duration : 25 min 28 s
Bit rate mode : Variable
Bit rate : 3 778 kb/s
Nominal bit rate : 4 020 kb/s
Maximum bit rate : 6 030 kb/s
Width : 1 920 pixels
Height : 1 080 pixels
Display aspect ratio : 16:9
Frame rate mode : Constant
Frame rate : 23.976 (24000/1001) FPS
Color space : YUV
Chroma subsampling : 4:2:0
Bit depth : 8 bits
Scan type : Progressive
Bits/(Pixel*Frame) : 0.076
Stream size : 688 MiB (76%)
Writing library : core 148 r2715 7e75228
Encoding settings : cabac=1 / ref=3 / deblock=1:0:0 / analyse=0x1:0x111 / me=umh / subme=10 / psy=1 / psy_rd=1.00:0.00 / mixed_ref=1 / me_range=24 / chroma_me=1 / trellis=2 / 8x8dct=0 / cqm=0 / deadzone=21,11 / fast_pskip=1 / chroma_qp_offset=-2 / threads=8 / lookahead_threads=1 / sliced_threads=0 / nr=0 / decimate=1 / interlaced=0 / bluray_compat=0 / stitchable=1 / constrained_intra=0 / bframes=2 / b_pyramid=0 / b_adapt=2 / b_bias=0 / direct=3 / weightb=1 / open_gop=0 / weightp=2 / keyint=250 / keyint_min=23 / scenecut=0 / intra_refresh=0 / rc_lookahead=48 / rc=2pass / mbtree=1 / bitrate=4020 / ratetol=1.0 / qcomp=0.50 / qpmin=6 / qpmax=51 / qpstep=4 / cplxblur=20.0 / qblur=0.5 / vbv_maxrate=6030 / vbv_bufsize=8040 / nal_hrd=vbr / filler=0 / ip_ratio=1.40 / aq=1:1.00
Language : English
Default : Yes
Forced : No

Audio #1
ID : 2
Format : AC-3
Format/Info : Audio Coding 3
Commercial name : Dolby Digital
Codec ID : A_AC3
Duration : 25 min 28 s
Bit rate mode : Constant
Bit rate : 448 kb/s
Channel(s) : 6 channels
Channel layout : L R C LFE Ls Rs
Sampling rate : 48.0 kHz
Frame rate : 31.250 FPS (1536 SPF)
Bit depth : 16 bits
Compression mode : Lossy
Stream size : 81.6 MiB (9%)
Title : Українська
Language : Ukrainian
Service kind : Complete Main
Default : Yes
Forced : No

Audio #2
ID : 3
Format : E-AC-3
Format/Info : Enhanced AC-3
Commercial name : Dolby Digital Plus
Codec ID : A_EAC3
Duration : 25 min 28 s
Bit rate mode : Constant
Bit rate : 640 kb/s
Channel(s) : 6 channels
Channel layout : L R C LFE Ls Rs
Sampling rate : 48.0 kHz
Frame rate : 31.250 FPS (1536 SPF)
Compression mode : Lossy
Stream size : 117 MiB (13%)
Language : English
Service kind : Complete Main
Default : No
Forced : No
Скріншоти

Озвучено студією сайту:
Ролі озвучили: Євген Малуха, Семен Птаха, Юлія Малахова, Олексій Сафін, Наталія Калюжна, Олекса Мельник, Мар'яна Янкевич та Андрій Корзаченко


Авторський реліз (завантажувати можна без реєстрації)
 Трекер:    Зареєстрований   

Завантажити / скачати мультфільм українською



відео для новачків



 Зареєстрований:   2020-04-19 12:10
 Розмір:   15.53 GB 
 Оцінка мультсеріалу:   9/10 (Голосів: 9)
 Перекладено та озвучено 6 сезон!
   
bot 
робот


З нами з: 30.09.07
Востаннє: 26.05.05
Повідомлень: 27902

2020-04-13 21:38  
Тему перенесено з Мультсеріали в HD до форуму Анонси релізів


simpsonsua

bomberzh 
Новенький


З нами з: 19.04.15
Востаннє: 03.04.21
Повідомлень: 2

2020-04-18 20:39  
а коли можна чекати реліз?
simpsonsua 
VIP


З нами з: 13.03.18
Востаннє: 10.04.21
Повідомлень: 357

2020-04-18 20:50  
bomberzh написано:
а коли можна чекати реліз?


Плануємо до 20 квітня зарелізити)

bot 
робот


З нами з: 30.09.07
Востаннє: 26.05.05
Повідомлень: 27902

2020-04-19 12:10  
Тему перенесено з Анонси релізів до форуму Мультсеріали в HD


simpsonsua

simpsonsua 
VIP


З нами з: 13.03.18
Востаннє: 10.04.21
Повідомлень: 357

2020-04-19 12:13  
Переклали та озвучили весь сезон!

Бажаємо всім приємного перегляду.

tilda4334 
Відео Гуртом - фільмокрай
Відео Гуртом - фільмокрай


З нами з: 15.08.14
Востаннє: 17.04.21
Повідомлень: 1539

2020-04-20 20:02  
Дякую за озвучення! Це мабуть один з найкращих мультсеріалів, що я бачив.
Ваш часовий пояс: GMT + 2 Години

Нова тема   Відповісти