Правила бою / Rules of Engagement (2000) 1080p Ukr/Eng | Sub Eng

Нові коментарі

Нова тема   Відповісти
Автор Повідомлення
Anonymous 







2020-04-13 21:27  
Правила бою / Rules of Engagement (2000) 1080p Ukr/Eng | Sub Eng




Жанр: драма, трилер, військовий
Країна: США


Кінокомпанія: Paramount Pictures, Seven Arts Pictures, Munich Film Partners & Company (MFP) ROE Production
Режисер: Вільям Фрідкін
Актори: Томмі Лі Джонс, Семюел Л. Джексон, Гай Пірс, Бен Кінгслі, Брюс Грінвуд, Енн Арчер, Блер Андервуд, Філіп Бейкер Хол, Дейл Дай, Аміду

Сюжет:
Полковник морської піхоти Тері Чайлдерс відправляється на небезпечне спецзавдання в одну з близькосхідних держав, де біля стін американського посольства проводять демонстрацію розлютовані ісламісти. Коли натовп починає штурм будівлі, він за всіма правилами бою відкриває по ньому вогонь, заради порятунку життів посла США і його сім'ї. Відчайдушний патріот, учасник найризикованіших військових кампаній, тепер обвинувачується в убивстві цивільних осіб іншої держави.
Швидко забувши про заслуги героя, уряд вирішує зам'яти міжнародний скандал, шляхом організації галасливого процесу, на якому передбачається звинуватити у всіх смертних гріхах заслуженого полковника-ветерана. Але на суді, який з легкістю розраховували виграти брудні, продажні політики, на захист свого бойового товариша з часів війни у ​​В'єтнамі встає його старий друг, військовий адвокат Гейс Годжес. Завдяки його незалежному розслідуванню відкривається шокуюча правда про події, що відбулися насправді на території посольства і яка мала місце після цього.


Тривалість: 02:07:19
Якість: 1080p

Відео:
Кодек: H264
Розмір кадру: 1920x726
Бітрейт: 10.7 Мбіт/с

Аудіо #1:
Мова: українська
Переклад: багатоголосий закадровий
Кодек: 2.0
Бітрейт: 192 Кбіт/с

Аудіо #2:
Мова: англійська
Переклад: Оригінал
Кодек: 5.1
Бітрейт: 1509 Кбіт/с

Аудіо #3:
Мова: англійська
Переклад: Коментарі режисера
Кодек: AC-3 2.0
Бітрейт: 224 Кбіт/с

Субтитри:
Мова: англійська
Тип: програмні (м'які)
Формат: *.srt

Info


General
Unique ID : 309509728931787660698404094357712369965 (0xE8D967CF0995AB4ED781B9036D57792D)
Format :
Format version : Version 4
File size : 11.3 GiB
Duration : 2 h 7 min
Overall bit rate : 12.7 Mb/s
Movie name : Rules of Engagement (2000) 1080p [UkrEng][SubEng] [Hurtom]
Encoded date : UTC 2020-04-13 18:00:21
Writing application : v45.0.0 ('Heaven in Pennies') 64-bit
Writing library : libebml v1.3.10 + v1.5.2
Attachments : poster eng.jpg

Video
ID : 1
Format : AVC
Format/Info : Advanced Video Codec
Format profile : [email protected]
Format settings : CABAC / 5 Ref Frames
Format settings, CABAC : Yes
Format settings, Reference fra : 5 frames
Codec ID : V_MPEG4/ISO/AVC
Duration : 2 h 7 min
Bit rate : 10.7 Mb/s
Width : 1 920 pixels
Height : 726 pixels
Display aspect ratio : 2.645
Frame rate mode : Constant
Frame rate : 24.000 FPS
Color space : YUV
Chroma subsampling : 4:2:0
Bit depth : 8 bits
Scan type : Progressive
Bits/(Pixel*Frame) : 0.321
Stream size : 9.54 GiB (85%)
Title : 1920x726p
Writing library : core 107 r1745 4785e8e
Encoding settings : cabac=1 / ref=5 / deblock=1:-3:-3 / analyse=0x3:0x113 / me=umh / subme=10 / psy=1 / psy_rd=1.05:0.10 / mixed_ref=1 / me_range=64 / chroma_me=1 / trellis=2 / 8x8dct=1 / cqm=2 / deadzone=21,11 / fast_pskip=0 / chroma_qp_offset=-2 / threads=12 / sliced_threads=0 / nr=0 / decimate=1 / interlaced=0 / constrained_intra=0 / bframes=6 / b_pyramid=2 / b_adapt=2 / b_bias=0 / direct=3 / weightb=1 / open_gop=0 / weightp=2 / keyint=250 / keyint_min=24 / scenecut=40 / intra_refresh=0 / rc_lookahead=60 / rc=2pass / mbtree=1 / bitrate=10732 / ratetol=1.0 / qcomp=0.70 / qpmin=10 / qpmax=51 / qpstep=4 / cplxblur=20.0 / qblur=0.5 / vbv_maxrate=50000 / vbv_bufsize=50000 / ip_ratio=1.40 / aq=1:1.00 / nal_hrd=none
Language : English
Default : Yes
Forced : No

Audio #1
ID : 2
Format : AC-3
Format/Info : Audio Coding 3
Commercial name : Dolby Digital
Codec ID : A_AC3
Duration : 2 h 7 min
Bit rate mode : Constant
Bit rate : 192 kb/s
Channel(s) : 2 channels
Channel layout : L R
Sampling rate : 48.0 kHz
Frame rate : 31.250 FPS (1536 SPF)
Bit depth : 16 bits
Compression mode : Lossy
Stream size : 175 MiB (2%)
Title : Багатоголосий закадровий [AMC] 2.0 @ 192 Кбіт/с
Language : Ukrainian
Service kind : Complete Main
Default : Yes
Forced : No

Audio #2
ID : 3
Format :
Format/Info : Digital Theater Systems
Codec ID : A_DTS
Duration : 2 h 7 min
Bit rate mode : Constant
Bit rate : 1 509 kb/s
Channel(s) : 6 channels
Channel layout : C L R Ls Rs LFE
Sampling rate : 48.0 kHz
Frame rate : 93.750 FPS (512 SPF)
Bit depth : 24 bits
Compression mode : Lossy
Stream size : 1.34 GiB (12%)
Title : [Оригінал] 5.1 @ 1509 Кбіт/с
Language : English
Default : No
Forced : No

Audio #3
ID : 4
Format : AC-3
Format/Info : Audio Coding 3
Commercial name : Dolby Digital
Codec ID : A_AC3
Duration : 2 h 7 min
Bit rate mode : Constant
Bit rate : 224 kb/s
Channel(s) : 2 channels
Channel layout : L R
Sampling rate : 48.0 kHz
Frame rate : 31.250 FPS (1536 SPF)
Bit depth : 16 bits
Compression mode : Lossy
Stream size : 204 MiB (2%)
Title : [коментарі режисера] 2.0 @ 224 Кбіт/с
Language : English
Service kind : Complete Main
Default : No
Forced : No

Text
ID : 5
Format : UTF-8
Codec ID : S_TEXT/UTF8
Codec ID/Info : UTF-8 Plain Text
Duration : 1 h 58 min
Bit rate : 66 b/s
Count of elements : 1459
Stream size : 57.7 KiB (0%)
Title : Повні
Language : English
Default : No
Forced : No

Menu
00:00:00.000 : en:Battle of Ca Lu
00:09:21.833 : en:Distinguished Service
00:14:27.208 : en:Embassy Siege
00:23:16.292 : en:International Crisis
00:31:01.542 : en:General Court-Martial
00:40:02.333 : en:Weak Lawyer
00:49:24.708 : en:Making a Case
00:56:47.000 : en:Yemen Investigation
01:02:45.458 : en:Career at Risk
01:11:50.167 : en:Opening Arguments
01:21:39.208 : en:Doctor Ahmar
01:27:59.125 : en:Withholding Evidence
01:37:41.750 : en:Childers' Testimony
01:45:06.500 : en:Summation
01:54:21.417 : en:Verdict
02:00:22.708 : en:Ednd Credits
Скріншоти







Українську доріжка: Sando7, Arsenfpu
Особиста подяка denixx за надану матеріальну допомогу на підтримку релізу Правила бою / Rules of Engagement (2000) 720p Ukr/Eng | Sub Eng

Джерело: &


Срібний реліз (на рейтинг впливає 50% завантаженого)
 Трекер:    Зареєстрований   

Завантажити / скачати фільм українською



відео для новачків



 Зареєстрований:   2020-04-13 21:27
 Розмір:   11.26 GB 
 Оцінка фільму:   10/10 (Голосів: 4)
   
Інші релізи
   Правила бою / Rules of Engagement (2000) 720p Ukr/Eng | Sub Eng drop_plz  1 / 0   6.8 GB   2018-08-24 08:51 
   Правила бою / Rules of Engagement (2000) Ukr/Eng Arsenfpu  3 / 0   2.13 GB   2017-10-12 23:54 
Ваш часовий пояс: GMT + 2 Години

Нова тема   Відповісти