Ґенерал / The General (1926) 1080 Eng | Sub Ukr [Німе Кіно]

Нові коментарі

Нова тема   Відповісти
Автор Повідомлення
Anonymous 







2020-04-13 19:45  
Ґенерал / The General (1926) 1080 Eng | Sub Ukr [Німе Кіно]

Ґенерал / The General (1926) 1080 Eng | Sub Ukr [Німе Кіно]


Жанр: комедія, романтичний, воєнний, пригодницький
Країна: США



Кінокомпанія: Buster Keaton Productions, Joseph M. Schenck Productions
Режисер: Клайд Брукман (Clyde Bruckman) і Бастер Кітон (Buster Keaton)
Актори: Бастер Кітон (Buster Keaton), Маріон Мак (Marion Mack), Ґлен Кавендер (Glen Cavender), Джим Фарлі (Jim Farley), Фредерік Врум (Frederick Vroom), Чарльз Генрі Сміт (Charles Henry Smith), Френк Барнс (Frank Barnes), Джо Кітон (Joe Keaton), Майк Донлін (Mike Donlin), Том Наун (Tom Nawn) та інші.

Сюжет:
Юного Джоні Ґрея не взяли в армію Конфедерації, і його кохана Анабель Лі відштовхує його, обізвавши боягузом. Проте, він зі своїм «напарником» паровозом втирає носа всім, виграючи бій. Джоні воює з викрадачами поїзда, неслухняною гарматою і непередбачуваною силою долі...


Тривалість: 1:19:46
Якість: 1080р
Відео:
кодек:
розмір кадру: 1420х1080
бітрейт: 7998 кб/с

Аудіо:
мова: відсутня, лише музичний супровід
переклад: оригінал
кодек: -HD МА 5.1
бітрейт: 3 802 кб/с

Субтитри:
мова: українська
тип: програмні (м'які)
формат: *.
переклад: власний аматорський, з російської
Info
General
Unique ID : 72146544544724617323752658681805372991 (0x3646EB4702899B29F3FC9D1B6CEB7E3F)
Complete name : The General (1926) 1080p [UKR SUB] .
Format :
Format version : Version 4
File size : 6.58 GiB
Duration : 1 h 19 min
Overall bit rate mode : Variable
Overall bit rate : 11.8 Mb/s
Encoded date : UTC 2020-04-13 15:12:24
Writing application : v45.0.0 ('Heaven in Pennies') 64-bit
Writing library : libebml v1.3.10 + v1.5.2

Video
ID : 1
Format : AVC
Format/Info : Advanced Video Codec
Format profile : [email protected]
Format settings : CABAC / 5 Ref Frames
Format settings, CABAC : Yes
Format settings, Reference : 5 frames
Codec ID : V_MPEG4/ISO/AVC
Duration : 1 h 19 min
Bit rate : 7 997 kb/s
Width : 1 420 pixels
Height : 1 080 pixels
Display aspect ratio : 4:3
Frame rate mode : Constant
Frame rate : 23.976 (24000/1001) FPS
Color space : YUV
Chroma subsampling : 4:2:0
Bit depth : 8 bits
Scan type : Progressive
Bits/(Pixel*Frame) : 0.217
Stream size : 4.46 GiB (68%)
Writing library : core 157 r2935 545de2f
Encoding settings : cabac=1 / ref=5 / deblock=1:-1:-1 / analyse=0x3:0x113 / me=umh / subme=11 / psy=1 / psy_rd=1.00:0.15 / mixed_ref=1 / me_range=48 / chroma_me=1 / trellis=2 / 8x8dct=1 / cqm=0 / deadzone=21,11 / fast_pskip=0 / chroma_qp_offset=-5 / threads=34 / lookahead_threads=5 / sliced_threads=0 / nr=0 / decimate=1 / interlaced=0 / bluray_compat=0 / constrained_intra=0 / bframes=8 / b_pyramid=2 / b_adapt=2 / b_bias=0 / direct=1 / weightb=1 / open_gop=0 / weightp=2 / keyint=240 / keyint_min=23 / scenecut=40 / intra_refresh=0 / rc_lookahead=60 / rc=2pass / mbtree=1 / bitrate=7997 / ratetol=1.0 / qcomp=0.60 / qpmin=10 / qpmax=69 / qpstep=4 / cplxblur=20.0 / qblur=0.5 / vbv_maxrate=50000 / vbv_bufsize=62500 / nal_hrd=none / filler=0 / ip_ratio=1.40 / aq=1:1.00
Default : Yes
Forced : No

Audio
ID : 2
Format : XLL
Format/Info : Digital Theater Systems
Commercial name : -HD Master Audio
Codec ID : A_DTS
Duration : 1 h 19 min
Bit rate mode : Variable
Bit rate : 3 802 kb/s
Channel(s) : 6 channels
Channel layout : C L R Ls Rs LFE
Sampling rate : 48.0 kHz
Frame rate : 93.750 FPS (512 SPF)
Bit depth : 24 bits
Compression mode : Lossless
Stream size : 2.12 GiB (32%)
Default : Yes
Forced : No

Text
ID : 3
Format :
Codec ID : S_TEXT/
Codec ID/Info : Advanced Sub Station Alpha
Duration : 1 h 18 min
Bit rate : 12 b/s
Count of elements : 65
Compression mode : Lossless
Stream size : 7.07 KiB (0%)
Default : Yes
Forced : No
Скріншоти









Цікаві факти
- В основі сценарію реальний випадок, описаний капралом сіверян Вільямом Піттенгер (1840-1904) в книзі «Відвага і страждання: історія великого залізничної пригоди» (1863). Група солдатів в цивільному проникла в тил жителів півдня, вийшла до залізничної станції і, поки пасажири поїзда снідали, викрала паровоз під назвою «Генерал», тримаючи шлях до своїх в Чаттанугу, спалюючи за собою мости і обриваючи телеграфні дроти. Виявивши пропажу, машиніст з одним з пасажирів пустилися в погоню пішки, потім на дрезині і паровозі. Наздогнали шпигунів і захопили їх разом з видобутком.

- Ключова сцена битви біля річки Рок-Рівер знімалася шістьма камерами одночасно, в ній було задіяно 500 солдатів національної гвардії Орегона. При вибухах кілька людей постраждали, в тому числі і Бастер Кітон. Батальна сцена викликала лісову пожежу, яку гасила вся знімальна група.

- На зйомках епізоду аварії потягу замість машиніста використовувався манекен. Сцена була поставлена ​​настільки реалістично, що роззяви, які спостерігали за процесом, закричали від жаху. Переляк на обличчях військових-сіверян, хто дивиться на падіння поїзда, також є справжнім - акторам, що грали їх, не сказали, що «Техас» впаде з палаючого моста.

- Сцена, в якій обвалюється міст, і їде за ним паровоз «Техас» падає в річку, стала найдорожчою за всю історію німого кіно. «Техас» пролежав у річці до Другої світової війни. У цей час США було потрібно багато металу на військові потреби, тому паровоз був піднято і відправлено на переплавку.

- В 1956 по цій історії компанією «Walt Disney» була знята історична драма «Крутий маршрут» (The Great Locomotive Chase).

- У фільмі безліч трюків, реально знятих на рухомих паровозах. Бастер Кітон виконував їх як завжди особисто, а ось машиністів довелося довго вмовляти брати участь в подібних авантюрах.

- Реакція актриси, в епізоді з збив її з ніг потоком води з бака, непідробна. Бастер Кітон вирішив не попереджати Меріон Мак про такий фінал сцени.

- Бастер Кітон завжди говорив, що це його улюблений фільм. А твір ділить звання кращої німої комедії поряд з фільмом Чарлі Чапліна «Золота лихоманка».

- На перших дублях не виходило добитися того, щоб ядро ​​з гармати потрапляло в кабіну локомотива - постріл виходив занадто сильним, і ядро ​​відлітав далеко вперед. Щоб домогтися правильної траєкторії польоту ядра, Кітон пінцетом відміряв зерна пороху для гармати.

- Масштабне опитування кінокритиків в 2012 році показав, що багато хто оцінив картину «Генерал» до числа кращих фільмів всіх часів і народів.
Джерело:
Особиста оцінка: 10 - без зайвих вагань рекомендую всім!


Срібний реліз (на рейтинг впливає 50% завантаженого)
 Трекер:    Зареєстрований   

Завантажити / скачати фільм українською



відео для новачків



 Зареєстрований:   2020-04-13 19:45
 Розмір:   6.58 GB 
 Оцінка фільму:   9.5/10 (Голосів: 4)
   
Інші релізи
   Ґенерал / The General (1926) Remux 1080 Eng | Sub Ukr [Німе Кіно] roalad  3 / 0   21.57 GB   2020-04-14 00:26 
   Ґенерал / The General (1926) AVC Eng | Sub Ukr [Німе Кіно] roalad  4 / 0   1.22 GB   2020-04-13 20:42 
   Генерал / The General (1926) DVD9 | Sub Ukr/Multi taraskill1  3 / 0   6.19 GB   2014-08-20 11:14 
   Ґенерал / The General (1926) Eng | Sub Ukr Hurtomivets'  3 / 0   1.09 GB   2010-10-19 12:44 
bot 
робот


З нами з: 30.09.07
Востаннє: 26.05.05
Повідомлень: 26407

2020-04-14 10:09  
Тему перенесено з Фільми в HD до форуму Фільми


11FrYkT

igor911 
Модератор відео


З нами з: 18.01.08
Востаннє: 29.11.20
Повідомлень: 15083

2020-04-14 14:07  
Зауваження теж саме, що й до сусіднього релізу https://toloka.to/t109724#1173212 + звук в ріпі варто було б залишати хоча б ядро , а не -HD MA. Це можна зробити навіть без перекодування, при муксуванні в mkvtoolnix'і (поставити прапорець "Залишити лише ядро" в групі "Властивості аудіо").
Anonymous 







2020-04-14 18:44  
igor911
В іншому релізі я вже поправив доріжку(обновив роздачу(перший реліз косяки видно зразу)), тут до вас питання, в 1080 хіба не лишається оригінальна доріжка без змін?

Ваш часовий пояс: GMT + 2 Години

Нова тема   Відповісти