Люблю назавжди / Endless Love (2014) 1080p Ukr/Eng | sub Ukr/Eng

Нові коментарі

Нова тема   Відповісти
Автор Повідомлення
Anonymous 







2020-04-13 16:25  
Люблю назавжди / Endless Love (2014) 1080p Ukr/Eng | sub Ukr/Eng

Люблю назавжди / Endless Love (2014) 1080p Ukr/Eng | sub Ukr/Eng


Жанр: драма, романтичний
Країна: США



Кінокомпанія: Bluegrass Films, Fake Empire, Universal Pictures
Режисер: Шана Фест
Актори: Алекс Петтіфер, Габріелла Уайлд, Брюс Грінвуд, Джоелі Річардсон, Роберт Патрік, Рис Вейкфілд, Дайо Окенійі, Ема Рігбі, Анна Енгер, Фабіану Терез

Сюжет:
Джейд Баттерфілд і Девід Елліот - багата спадкоємиця і харизматичний шибеник, чия пристрасна любов стає лише сильніше від того, що батьки намагаються їх розлучити. Незважаючи на класові перешкоди, їхнє тяжіння стає все більш непереборним ...


Тривалість: 01:44:38
Якість: 1080p

Відео:
кодек:
розмір кадру: 1920x816
бітрейт: ~ 17900 кб/с

Аудіо # 1:
мова: українська
переклад: професійний дубльований
кодек: 2.0
бітрейт: 192 кб/с

Аудіо # 2:
мова: англійська
переклад: оригінал
кодек: 5.1
бітрейт: 1536 кб/с

Субтитри: (forced, full)
мова: українська
тип: програмні (м'які)
формат: *.srt

Субтитри: (full, SDH, SDH-Colored)
мова: англійська
тип: програмні (м'які)
формат: *.srt

Збережено оригінальні розділи, як на Blu-ray
Info
Код:
General
Complete name                            : Endless Love (2014) 1080p [ukr, eng] [Video_Hurtom].
Format                                   :
Format version                           : Version 4
File size                                : 14.3 GiB
Duration                                 : 1 h 44 min
Overall bit rate                         : 19.6 Mb/s
Movie name                               : Люблю назавжди / Endless Love (2014)
Encoded date                             : UTC 2020-04-13 13:02:08
Writing application                      : v44.0.0 ('Domino') 64-bit
Writing library                          : libebml v1.3.10 + v1.5.2
Cover                                    : Yes
Attachments                              : cover.jpg

Video
ID                                       : 1
Format                                   : AVC
Format/Info                              : Advanced Video Codec
Format profile                           : [email protected]
Format settings                          : CABAC / 5 Ref Frames
Format settings, CABAC                   : Yes
Format settings, RefFrames               : 5 frames
Codec ID                                 : V_MPEG4/ISO/AVC
Duration                                 : 1 h 44 min
Bit rate                                 : 17.9 Mb/s
Width                                    : 1 920 pixels
Height                                   : 816 pixels
Display aspect ratio                     : 2.35:1
Frame rate mode                          : Constant
Frame rate                               : 23.976 (24000/1001) FPS
Color space                              : YUV
Chroma subsampling                       : 4:2:0
Bit depth                                : 8 bits
Scan type                                : Progressive
Bits/(Pixel*Frame)                       : 0.477
Stream size                              : 13.1 GiB (91%)
Title                                    : Endless Love (2014) (1080p)
Writing library                          : core 142 r2431+42 c69a006 tMod [[email protected] X86]
Encoding settings                        : cabac=1 / ref=5 / deblock=1:-3:-3 / analyse=0x3:0x113 / me=tesa / subme=11 / psy=1 / fade_compensate=0.00 / psy_rd=1.00:0.15 / mixed_ref=1 / me_range=48 / chroma_me=1 / trellis=2 / 8x8dct=1 / cqm=0 / deadzone=21,11 / fast_pskip=0 / chroma_qp_offset=-3 / threads=16 / lookahead_threads=4 / sliced_threads=0 / nr=0 / decimate=0 / interlaced=0 / bluray_compat=0 / constrained_intra=0 / fgo=0 / bframes=10 / b_pyramid=2 / b_adapt=2 / b_bias=0 / direct=3 / weightb=1 / open_gop=0 / weightp=2 / keyint=240 / keyint_min=23 / scenecut=40 / intra_refresh=0 / rc_lookahead=240 / rc=2pass / mbtree=1 / bitrate=17900 / ratetol=1.0 / qcomp=0.65 / qpmin=0:0:0 / qpmax=69:69:69 / qpstep=4 / cplxblur=20.0 / qblur=0.5 / vbv_maxrate=50000 / vbv_bufsize=62500 / nal_hrd=none / filler=0 / ip_ratio=1.30 / aq=4:0.60 / aq-sensitivity=10.00 / aq-factor=1.00:1.00:1.00 / aq2=0 / aq3=0
Language                                 : English
Default                                  : Yes
Forced                                   : No

Audio #1
ID                                       : 2
Format                                   : AC-3
Format/Info                              : Audio Coding 3
Commercial name                          : Dolby Digital
Codec ID                                 : A_AC3
Duration                                 : 1 h 44 min
Bit rate mode                            : Constant
Bit rate                                 : 192 kb/s
Channel(s)                               : 2 channels
Channel layout                           : L R
Sampling rate                            : 48.0 kHz
Frame rate                               : 31.250 FPS (1536 SPF)
Bit depth                                : 16 bits
Compression mode                         : Lossy
Stream size                              : 144 MiB (1%)
Title                                    : 2.0 | 192
Language                                 : Ukrainian
Service kind                             : Complete Main
Default                                  : Yes
Forced                                   : No

Audio #2
ID                                       : 3
Format                                   :
Format/Info                              : Digital Theater Systems
Codec ID                                 : A_DTS
Duration                                 : 1 h 44 min
Bit rate mode                            : Constant
Bit rate                                 : 1 509 kb/s
Channel(s)                               : 6 channels
Channel layout                           : C L R Ls Rs LFE
Sampling rate                            : 48.0 kHz
Frame rate                               : 93.750 FPS (512 SPF)
Bit depth                                : 24 bits
Compression mode                         : Lossy
Stream size                              : 1.10 GiB (8%)
Title                                    : 5.1 | 1536
Language                                 : English
Default                                  : No
Forced                                   : No

Text #1
ID                                       : 4
Format                                   : UTF-8
Codec ID                                 : S_TEXT/UTF8
Codec ID/Info                            : UTF-8 Plain Text
Duration                                 : 1 h 33 min
Bit rate                                 : 0 b/s
Count of elements                        : 15
Stream size                              : 635 Bytes (0%)
Title                                    : Forced
Language                                 : Ukrainian
Default                                  : Yes
Forced                                   : No

Text #2
ID                                       : 5
Format                                   : UTF-8
Codec ID                                 : S_TEXT/UTF8
Codec ID/Info                            : UTF-8 Plain Text
Duration                                 : 1 h 38 min
Bit rate                                 : 101 b/s
Count of elements                        : 1439
Stream size                              : 73.4 KiB (0%)
Title                                    : Full
Language                                 : Ukrainian
Default                                  : No
Forced                                   : No

Text #3
ID                                       : 6
Format                                   : UTF-8
Codec ID                                 : S_TEXT/UTF8
Codec ID/Info                            : UTF-8 Plain Text
Duration                                 : 1 h 38 min
Bit rate                                 : 62 b/s
Count of elements                        : 1537
Stream size                              : 45.1 KiB (0%)
Title                                    : Full
Language                                 : English
Default                                  : No
Forced                                   : No

Text #4
ID                                       : 7
Format                                   : UTF-8
Codec ID                                 : S_TEXT/UTF8
Codec ID/Info                            : UTF-8 Plain Text
Duration                                 : 1 h 38 min
Bit rate                                 : 68 b/s
Count of elements                        : 1733
Stream size                              : 49.5 KiB (0%)
Title                                    : SDH
Language                                 : English
Default                                  : No
Forced                                   : No

Text #5
ID                                       : 8
Format                                   : UTF-8
Codec ID                                 : S_TEXT/UTF8
Codec ID/Info                            : UTF-8 Plain Text
Duration                                 : 1 h 38 min
Bit rate                                 : 83 b/s
Count of elements                        : 1733
Stream size                              : 60.4 KiB (0%)
Title                                    : SDH-Colored
Language                                 : English
Default                                  : No
Forced                                   : No

Menu
00:00:00.000                             : en:Chapter 01
00:05:46.220                             : en:Chapter 02
00:11:45.162                             : en:Chapter 03
00:15:51.533                             : en:Chapter 04
00:19:43.724                             : en:Chapter 05
00:25:26.816                             : en:Chapter 06
00:29:42.989                             : en:Chapter 07
00:35:30.670                             : en:Chapter 08
00:39:56.644                             : en:Chapter 09
00:45:14.211                             : en:Chapter 10
00:49:02.022                             : en:Chapter 11
00:54:55.917                             : en:Chapter 12
00:59:51.588                             : en:Chapter 13
01:04:43.212                             : en:Chapter 14
01:10:01.947                             : en:Chapter 15
01:16:55.986                             : en:Chapter 16
01:23:17.033                             : en:Chapter 17
01:29:33.993                             : en:Chapter 18
01:35:54.081                             : en:Chapter 19
01:39:26.752                             : en:Chapter 20
01:44:38.188                             : en:Chapter 21
Скріншоти






Джерело:

Запис звуку з ТБ: Bohdan237 та xslim
Зведення: Bohdan237


Особиста оцінка: 8 - мені сподобалося


 Трекер:    Зареєстрований   

Завантажити / скачати фільм українською



відео для новачків



 Зареєстрований:   2020-04-13 16:25
 Розмір:   14.33 GB 
 Оцінка фільму:   9.7/10 (Голосів: 7)
   
Інші релізи
[email protected] 
VIP


З нами з: 25.03.17
Востаннє: 13.09.20
Повідомлень: 551

2020-04-26 20:02  
10/10. Гарний фільм.
Anonymous 







2020-09-17 16:12  
8 - мені сподобалося
Ваш часовий пояс: GMT + 2 Години

Нова тема   Відповісти