Сексуальне виховання (Сезон 2) / Sex Education (Season 2) (2020) AVC Ukr/Eng

Нові коментарі

Нова тема   Відповісти
Автор Повідомлення
Цікава ідея 
VIP


З нами з: 26.12.11
Востаннє: 18.09.20
Повідомлень: 660

2020-04-13 14:46  
1 сезон: | AVC | 1080p
2 сезон: | AVC | 1080p

Сексуальне виховання (Сезон 2) / Sex Education (Season 2) (2020) AVC Ukr/Eng


Сексуальне виховання (Сезон 2) / Sex Education (Season 2) (2020) AVC Ukr/Eng


Якщо вам сподобалося озвучення серіалу,
то ви можете підтримати нас за посиланням
ТИЦЬ


Жанр: комедія, драма
Країна: США, Велика Британія



Кінокомпанія / телеканал: Eleven, Netflix
Автор: Лорі Нанн
Режисери: Кейт Геррон, Бен Тейлор
Актори: Ейса Баттерфілд, Джилліан Андерсон, Емма Мекі, Нкуті Ґатва, Коннор Свінделлз, Еймі Лу Вуд, Алістер Петрі, Кедар Вілльямс-Стерлінґ, Мікаель Персбрандт, Патриша Аллісон

Сюжет:
Однокласниця підбиває закомплексованого підлітка, мама якого працює секс-терапевтом, організувати підпільні консультації на тему сексу у школі.


Перекладено та озвучено ТО "Цікава Ідея" за підтримки сайту UASERIALS.PRO


Український трейлер в нашому озвученні.


ЯКЩО НЕ ПРАЦЮЄ ТИЦЬ СЮДИ


Тривалість: 1 серія: ~ 50 хв (цілком серій: 8)
Перелік серій:

01. Episode #1
02. Episode #2
03. Episode #3
04. Episode #4
05. Episode #5
06. Episode #6
07. Episode #7
08. Episode #8]
Якість: AVC
Відео:
кодек:
розмір кадру: 720 x 360
бітрейт: 1100 кб/с

Аудіо # 1:
мова: українська | "Цікава Ідея"
переклад: професійний багатоголосий закадровий
кодек: 5.1
бітрейт: 448 кб/с

Аудіо # 2:
мова: англійська
переклад: оригінал
кодек: E- 5.1
бітрейт: 640 кб/с
Info
Код:
Format                      :
Format version              : Version 4
File size                   : 786 MiB
Duration                    : 51 min 16 s
Overall bit rate            : 2 143 kb/s
Movie name                  : Сексуальне виховання / Sex Education - S02E01 (2020) AVC [Ukr.Eng] [Цікава Ідея]
Encoded date                : UTC 2020-04-25 18:29:20
Writing application         : v6.8.0 ('Theme for Great Cities') 32bit built on Mar  2 2014 21:27:07
Writing library             : libebml v1.3.0 + v1.4.1
Cover                       : Yes
Attachments                 : cover.png

Video
ID                          : 1
Format                      : AVC
Format/Info                 : Advanced Video Codec
Format profile              : [email protected]
Format settings             : CABAC / 5 Ref Frames
Format settings, CABAC      : Yes
Format settings, Reference  : 5 frames
Codec ID                    : V_MPEG4/ISO/AVC
Duration                    : 51 min 16 s
Bit rate                    : 1 012 kb/s
Nominal bit rate            : 1 100 kb/s
Width                       : 720 pixels
Height                      : 360 pixels
Display aspect ratio        : 2.000
Frame rate mode             : Constant
Frame rate                  : 25.000 FPS
Color space                 : YUV
Chroma subsampling          : 4:2:0
Bit depth                   : 8 bits
Scan type                   : Progressive
Bits/(Pixel*Frame)          : 0.156
Stream size                 : 371 MiB (47%)
Writing library             : core 148 r2795M aaa9aa8
Encoding settings           : cabac=1 / ref=5 / deblock=1:-1:-1 / analyse=0x3:0x113 / me=umh / subme=9 / psy=1 / psy_rd=1.00:0.15 / mixed_ref=1 / me_range=16 / chroma_me=1 / trellis=2 / 8x8dct=1 / cqm=0 / deadzone=21,11 / fast_pskip=1 / chroma_qp_offset=-3 / threads=24 / lookahead_threads=2 / sliced_threads=0 / nr=0 / decimate=1 / interlaced=0 / bluray_compat=0 / constrained_intra=0 / bframes=3 / b_pyramid=2 / b_adapt=2 / b_bias=0 / direct=3 / weightb=1 / open_gop=0 / weightp=2 / keyint=250 / keyint_min=25 / scenecut=40 / intra_refresh=0 / rc_lookahead=50 / rc=abr / mbtree=1 / bitrate=1100 / ratetol=1.0 / qcomp=0.60 / qpmin=0 / qpmax=69 / qpstep=4 / ip_ratio=1.40 / aq=1:1.00
Language                    : English
Default                     : Yes
Forced                      : No

Audio #1
ID                          : 2
Format                      : AC-3
Format/Info                 : Audio Coding 3
Commercial name             : Dolby Digital
Codec ID                    : A_AC3
Duration                    : 51 min 16 s
Bit rate mode               : Constant
Bit rate                    : 448 kb/s
Channel(s)                  : 6 channels
Channel layout              : L R C LFE Ls Rs
Sampling rate               : 48.0 kHz
Frame rate                  : 31.250 FPS (1536 SPF)
Bit depth                   : 16 bits
Compression mode            : Lossy
Stream size                 : 164 MiB (21%)
Title                       : Українська
Language                    : Ukrainian
Service kind                : Complete Main
Default                     : Yes
Forced                      : No

Audio #2
ID                          : 3
Format                      : E-AC-3
Format/Info                 : Enhanced AC-3
Commercial name             : Dolby Digital Plus
Codec ID                    : A_EAC3
Duration                    : 51 min 16 s
Bit rate mode               : Constant
Bit rate                    : 640 kb/s
Channel(s)                  : 6 channels
Channel layout              : L R C LFE Ls Rs
Sampling rate               : 48.0 kHz
Frame rate                  : 31.250 FPS (1536 SPF)
Compression mode            : Lossy
Stream size                 : 235 MiB (30%)
Title                       : English
Language                    : English
Service kind                : Complete Main
Default                     : No
Forced                      : No
Скріншоти



Озвучено творчим об'єднанням:
Ролі озвучили: Семен Птаха, Юлія Малахова, Матвій Ніколаєв, Анна Пелех, Олексій Сафін, Олександр Чернов та Андрій Корзаченко


Авторський реліз (завантажувати можна без реєстрації)
 Трекер:    Зареєстрований   

Завантажити / скачати серіал українською



відео для новачків



 Зареєстрований:   2020-05-14 21:01
 Розмір:   6.29 GB 
 Оцінка серіалу:   9.6/10 (Голосів: 45)
 Перекладено та озвучено 8 серію. Фінал сезону!
   
itomac 
Новенький


З нами з: 29.12.16
Востаннє: 26.04.20
Повідомлень: 3

2020-04-13 15:38  
а буде формат більше ніж екран у тамагочі ж?
Цікава ідея 
VIP


З нами з: 26.12.11
Востаннє: 18.09.20
Повідомлень: 660

2020-04-13 15:40  
itomac написано:
а буде формат більше ніж екран у тамагочі ж?


https://toloka.to/t109709

Цікава ідея 
VIP


З нами з: 26.12.11
Востаннє: 18.09.20
Повідомлень: 660

2020-04-14 16:55  
Український трейлер в нашому озвученні.


ЯКЩО НЕ ПРАЦЮЄ ТИЦЬ СЮДИ

AnubiS 
VIP


З нами з: 10.05.09
Востаннє: 18.09.20
Повідомлень: 389

2020-04-15 09:07  
Цікаво )
bot 
робот


З нами з: 30.09.07
Востаннє: 26.05.05
Повідомлень: 25542

2020-04-25 22:03  
Тему перенесено з Анонси релізів до форуму Телесеріали


Цікава ідея

Цікава ідея 
VIP


З нами з: 26.12.11
Востаннє: 18.09.20
Повідомлень: 660

2020-04-25 22:05  
Переклали та озвучили 1 серію!
Підтримайте озвучення наступних серій,
реквізити в описі релізу!

Цікава ідея 
VIP


З нами з: 26.12.11
Востаннє: 18.09.20
Повідомлень: 660

2020-04-29 19:29  
Переклали та озвучили 2 серію!
Підтримайте озвучення наступних серій,
реквізити в описі релізу.

[email protected] 
Частий відвідувач


З нами з: 27.11.15
Востаннє: 13.09.20
Повідомлень: 32

2020-05-01 09:50  
"з математикою у тебе журбинка" Wide grin
Цікава ідея 
VIP


З нами з: 26.12.11
Востаннє: 18.09.20
Повідомлень: 660

2020-05-03 21:57  
Переклали та озвучили 3 серію.
Підтримайте озвучення наступних серій,
реквізити в описі релізу.

Цікава ідея 
VIP


З нами з: 26.12.11
Востаннє: 18.09.20
Повідомлень: 660

2020-05-08 19:57  
Переклали та озвучили 4-5 серії!
Підтримайте озвучення наступних серій,
реквізити в описі релізу.

Цікава ідея 
VIP


З нами з: 26.12.11
Востаннє: 18.09.20
Повідомлень: 660

2020-05-09 21:33  
Переклали та озвучили 6 серію!
Підтримайте озвучення наступних серій,
реквізити в описі релізу.

doslis 
Свій


З нами з: 15.02.16
Востаннє: 18.09.20
Повідомлень: 52

2020-05-10 21:58  
щось в мене після перегляду другого сезону екран аж посинів..
Цікава ідея 
VIP


З нами з: 26.12.11
Востаннє: 18.09.20
Повідомлень: 660

2020-05-11 16:33  
Переклали та озвучили 7 серію!
Підтримайте озвучення наступних серій,
реквізити в описі релізу.

Цікава ідея 
VIP


З нами з: 26.12.11
Востаннє: 18.09.20
Повідомлень: 660

2020-05-14 21:11  
Переклали та озвучили 8 серію. Фінал сезону!

Дякуємо всім за підтримку та увагу!
Бажаємо приємного перегляду.

VitNi 
Поважний учасник


З нами з: 05.05.12
Востаннє: 18.09.20
Повідомлень: 181

2020-05-15 08:50  
Спочатку думка бул що фільм для перетворення людей на тварин. А потім подумав - тварини вищі за ту перетворену з людей худобу.
myru22 
Свій


З нами з: 27.11.16
Востаннє: 25.08.20
Повідомлень: 95

2020-06-16 23:44  
актор Шуті Гатва, який іграє темношкірого гея Еріка за сюжетом, якому десь 16 років - в реалі 27.
don pedro 
Попереджень: 1
Попереджень: 1 


З нами з: 29.06.11
Востаннє: 18.09.20
Повідомлень: 17713

2020-07-23 19:38  
Я впевнений, що серіал завершиться тим, що усі дійові особи стануть геями (судячи з останньої серії другого сезону).
us1om41k 
Новенький


З нами з: 26.10.17
Востаннє: 20.08.20
Повідомлень: 23

2020-08-20 21:53  
don pedro, дякую за спойлер
don pedro 
Попереджень: 1
Попереджень: 1 


З нами з: 29.06.11
Востаннє: 18.09.20
Повідомлень: 17713

2020-08-20 22:36  
us1om41k
Це не спойлер, а обґрунтоване припущення.

Ваш часовий пояс: GMT + 2 Години

Нова тема   Відповісти