Сексуальне виховання (Сезон 2) / Sex Education (Season 2) (2020) 1080p Ukr/Eng

Нові коментарі

Нова тема   Відповісти
Автор Повідомлення
Цікава ідея 
VIP


З нами з: 25.12.11
Востаннє: 25.11.20
Повідомлень: 728

2020-04-13 13:42  
1 сезон: | AVC | 1080p
2 сезон: | AVC | 1080p

Сексуальне виховання (Сезон 2) / Sex Education (Season 2) (2020) 1080p Ukr/Eng


Сексуальне виховання (Сезон 2) / Sex Education (Season 2) (2020) 1080p Ukr/Eng


Якщо вам сподобалося озвучення серіалу,
то ви можете підтримати нас за посиланням
ТИЦЬ


Жанр: комедія, драма
Країна: США, Велика Британія



Кінокомпанія / телеканал: Eleven, Netflix
Автор: Лорі Нанн
Режисери: Кейт Геррон, Бен Тейлор
Актори: Ейса Баттерфілд, Джилліан Андерсон, Емма Мекі, Нкуті Ґатва, Коннор Свінделлз, Еймі Лу Вуд, Алістер Петрі, Кедар Вілльямс-Стерлінґ, Мікаель Персбрандт, Патриша Аллісон

Сюжет:
Однокласниця підбиває закомплексованого підлітка, мама якого працює секс-терапевтом, організувати підпільні консультації на тему сексу у школі.


Перекладено та озвучено ТО "Цікава Ідея" за підтримки сайту UASERIALS.PRO


Український трейлер в нашому озвученні.


ЯКЩО НЕ ПРАЦЮЄ ТИЦЬ СЮДИ


Тривалість: 1 серія: ~ 50 хв (цілком серій: 8)
Перелік серій:

01. Episode #1
02. Episode #2
03. Episode #3
04. Episode #4
05. Episode #5
06. Episode #6
07. Episode #7
08. Episode #8
Якість: 1080p
Відео:
кодек:
розмір кадру: 1920 x 960
бітрейт: 12.5 мб/с

Аудіо # 1:
мова: українська | "Цікава Ідея"
переклад: професійний багатоголосий закадровий
кодек: 5.1
бітрейт: 448 кб/с

Аудіо # 2:
мова: англійська
переклад: оригінал
кодек: E- 5.1
бітрейт: 640 кб/с
Info
Код:
Format                      :
Format version              : Version 4
File size                   : 4.99 GiB
Duration                    : 51 min 18 s
Overall bit rate            : 13.9 Mb/s
Movie name                  : Сексуальне виховання / Sex Education - S02E01 (2020) 1080p [Ukr.Eng] [Цікава Ідея]
Encoded date                : UTC 2020-04-25 18:21:35
Writing application         : v6.8.0 ('Theme for Great Cities') 32bit built on Mar  2 2014 21:27:07
Writing library             : libebml v1.3.0 + v1.4.1
Cover                       : Yes
Attachments                 : cover.png

Video
ID                          : 1
Format                      : AVC
Format/Info                 : Advanced Video Codec
Format profile              : [email protected]
Format settings             : CABAC / 4 Ref Frames
Format settings, CABAC      : Yes
Format settings, Reference  : 4 frames
Codec ID                    : V_MPEG4/ISO/AVC
Duration                    : 51 min 18 s
Bit rate                    : 12.5 Mb/s
Width                       : 1 920 pixels
Height                      : 960 pixels
Display aspect ratio        : 2.000
Frame rate mode             : Constant
Frame rate                  : 25.000 FPS
Color space                 : YUV
Chroma subsampling          : 4:2:0
Bit depth                   : 8 bits
Scan type                   : Progressive
Bits/(Pixel*Frame)          : 0.272
Stream size                 : 4.50 GiB (90%)
Writing library             : core 157 r2969 d4099dd
Encoding settings           : cabac=1 / ref=4 / deblock=1:-3:-3 / analyse=0x3:0x133 / me=umh / subme=10 / psy=1 / psy_rd=1.00:0.15 / mixed_ref=1 / me_range=48 / chroma_me=1 / trellis=2 / 8x8dct=1 / cqm=0 / deadzone=21,11 / fast_pskip=0 / chroma_qp_offset=-3 / threads=12 / lookahead_threads=2 / sliced_threads=0 / nr=0 / decimate=0 / interlaced=0 / bluray_compat=0 / constrained_intra=0 / bframes=8 / b_pyramid=2 / b_adapt=2 / b_bias=0 / direct=3 / weightb=1 / open_gop=0 / weightp=2 / keyint=250 / keyint_min=25 / scenecut=40 / intra_refresh=0 / rc=crf / mbtree=0 / crf=17.0 / qcomp=0.60 / qpmin=0 / qpmax=69 / qpstep=4 / ip_ratio=1.30 / pb_ratio=1.20 / aq=3:0.80
Language                    : English
Default                     : Yes
Forced                      : No

Audio #1
ID                          : 2
Format                      : AC-3
Format/Info                 : Audio Coding 3
Commercial name             : Dolby Digital
Codec ID                    : A_AC3
Duration                    : 51 min 18 s
Bit rate mode               : Constant
Bit rate                    : 448 kb/s
Channel(s)                  : 6 channels
Channel layout              : L R C LFE Ls Rs
Sampling rate               : 48.0 kHz
Frame rate                  : 31.250 FPS (1536 SPF)
Bit depth                   : 16 bits
Compression mode            : Lossy
Stream size                 : 164 MiB (3%)
Title                       : Українська
Language                    : Ukrainian
Service kind                : Complete Main
Default                     : Yes
Forced                      : No

Audio #2
ID                          : 3
Format                      : E-AC-3
Format/Info                 : Enhanced AC-3
Commercial name             : Dolby Digital Plus
Codec ID                    : A_EAC3
Duration                    : 51 min 18 s
Bit rate mode               : Constant
Bit rate                    : 640 kb/s
Channel(s)                  : 6 channels
Channel layout              : L R C LFE Ls Rs
Sampling rate               : 48.0 kHz
Frame rate                  : 31.250 FPS (1536 SPF)
Compression mode            : Lossy
Stream size                 : 235 MiB (5%)
Title                       : English
Language                    : English
Service kind                : Complete Main
Default                     : No
Forced                      : No
Скріншоти



Озвучено творчим об'єднанням:
Ролі озвучили: Семен Птаха, Юлія Малахова, Матвій Ніколаєв, Анна Пелех, Олексій Сафін, Олександр Чернов та Андрій Корзаченко


Авторський реліз (завантажувати можна без реєстрації)
 Трекер:    Зареєстрований   

Завантажити / скачати серіал українською



відео для новачків



 Зареєстрований:   2020-05-14 20:01
 Розмір:   39.99 GB 
 Оцінка серіалу:   9.8/10 (Голосів: 37)
 Перекладено та озвучено 8 серію. Фінал сезону!
   
zoomymba2012 
VIP


З нами з: 08.01.15
Востаннє: 24.11.20
Повідомлень: 688

2020-04-13 15:29  
Не знаю навіщо, але сподіваюсь ви озвучите трейлер до цього сезону.
Бо там є такий прикольний трейлер. Я б назвав його ідеальним трейлером)

havryk 
VIP


З нами з: 29.06.10
Востаннє: 24.11.20
Повідомлень: 843

2020-04-13 17:41  
zoomymba2012, там і перший трейлер чудовий, особливо якщо рік чекав другий сезон

Цікава ідея 
VIP


З нами з: 25.12.11
Востаннє: 25.11.20
Повідомлень: 728

2020-04-14 15:56  
Український трейлер в нашому озвученні.


ЯКЩО НЕ ПРАЦЮЄ ТИЦЬ СЮДИ

roalad 
VIP


З нами з: 22.06.12
Востаннє: 25.11.20
Повідомлень: 371

2020-04-14 21:56  
Цікава ідея
трейлер забанили? не можу запустити...

Цікава ідея 
VIP


З нами з: 25.12.11
Востаннє: 25.11.20
Повідомлень: 728

2020-04-14 22:27  
roalad написано:
трейлер забанили? не можу запустити...


Дякуємо за підказку! Вже замінили відео)

bot 
робот


З нами з: 30.09.07
Востаннє: 26.05.05
Повідомлень: 26355

2020-04-25 21:03  
Тему перенесено з Анонси релізів до форуму Серіали в HD


Цікава ідея

Цікава ідея 
VIP


З нами з: 25.12.11
Востаннє: 25.11.20
Повідомлень: 728

2020-04-25 21:05  
Переклали та озвучили 1 серію!
Підтримайте озвучення наступних серій,
реквізити в описі релізу.

Цікава ідея 
VIP


З нами з: 25.12.11
Востаннє: 25.11.20
Повідомлень: 728

2020-04-29 18:29  
Переклали та озвучили 2 серію!
Підтримайте озвучення наступних серій,
реквізити в описі релізу.

Цікава ідея 
VIP


З нами з: 25.12.11
Востаннє: 25.11.20
Повідомлень: 728

2020-05-03 20:57  
Переклали та озвучили 3 серію!
Підтримайте озвучення наступних серій,
реквізити в описі релізу.

Цікава ідея 
VIP


З нами з: 25.12.11
Востаннє: 25.11.20
Повідомлень: 728

2020-05-08 18:57  
Переклали та озвучили 4-5 серії!
Підтримайте озвучення наступних серій,
реквізити в описі релізу.

Цікава ідея 
VIP


З нами з: 25.12.11
Востаннє: 25.11.20
Повідомлень: 728

2020-05-09 20:33  
Переклали та озвучили 6 серію!
Підтримайте озвучення наступних серій,
реквізити в описі релізу.

doslis 
Свій


З нами з: 15.02.16
Востаннє: 24.11.20
Повідомлень: 66

2020-05-10 21:11  
щось в мене після перегляду другого сезону екран аж посинів...
Цікава ідея 
VIP


З нами з: 25.12.11
Востаннє: 25.11.20
Повідомлень: 728

2020-05-11 15:33  
Переклали та озвучили 7 серію!
Підтримайте озвучення наступних серій,
реквізити в описі релізу.

Lmkk 
Частий відвідувач


З нами з: 04.07.09
Востаннє: 24.11.20
Повідомлень: 37

2020-05-12 09:57  
Дуже вдячні Вам за переклад.
Наразі це найкращий переклад з усіх на толоці.
Продовжуйте будь-ласка так і надалі)

ovinix 
Новенький


З нами з: 07.08.13
Востаннє: 08.08.20
Повідомлень: 5

2020-05-12 20:09  
Приєднуюсь! Топовий серіал з топовим перекладом. Підтримав обидва сезони донатами )
Цікава ідея 
VIP


З нами з: 25.12.11
Востаннє: 25.11.20
Повідомлень: 728

2020-05-14 20:11  
Переклали та озвучили 8 серію. Фінал сезону!

Дякуємо всім за підтримку та увагу!
Бажаємо приємного перегляду.

[email protected] 
Частий відвідувач


З нами з: 27.11.15
Востаннє: 22.11.20
Повідомлень: 32

2020-05-14 20:13  
Усе на висоті. Дякую за серіал, надіюся й надалі бачити якісні озвучки на якісні серіали)
Цікава ідея 
VIP


З нами з: 25.12.11
Востаннє: 25.11.20
Повідомлень: 728

2020-05-14 20:15  
[email protected] написано:
Усе на висоті. Дякую за серіал, надіюся й надалі бачити якісні озвучки на якісні серіали)

Раді чути)

valerkiiiin 
Новенький


З нами з: 25.10.15
Востаннє: 22.11.20
Повідомлень: 1

2020-05-16 14:27  
Цікава Ідея дякую за переклад, озвучка крута, приємно чути, обовя'зково буду підтримувати ваші проєкти та й сам серіал звісно рвань, раджу до перегляду відкритим, позитивним людям моралісти боюсь не оцінять Happy
zlob1234 
Новенький


З нами з: 05.09.19
Востаннє: 24.11.20
Повідомлень: 4

2020-05-18 11:24  
Дякую за переклад.
Дякую за роботу.
Дякую.

П.С.: третє дякую було на сайті на збори перекладу другого сезону)))

Зимноводівець 
Новенький


З нами з: 19.09.09
Востаннє: 22.11.20
Повідомлень: 2

2020-07-01 17:44  
Доброго дня. Скачав двічі і, всі серії з 1-шо сезону. Де знаходиться 2-ий сезон?
Цікава ідея 
VIP


З нами з: 25.12.11
Востаннє: 25.11.20
Повідомлень: 728

2020-07-01 17:50  
Зимноводівець написано:
Доброго дня. Скачав двічі і, всі серії з 1-шо сезону. Де знаходиться 2-ий сезон?

Ви щось наплутали. 2й сезон прямо на цій сторінці, де коментуєте.

Зимноводівець 
Новенький


З нами з: 19.09.09
Востаннє: 22.11.20
Повідомлень: 2

2020-07-01 17:55  
Цитата:
Ви щось наплутали. 2й сезон прямо на цій сторінці, де коментуєте.

Маєте можливість скачати хоча би одну серію, то подивіться, бо в мене всі серії 1-го сезону

INTER-FAN 
Свій


З нами з: 25.01.10
Востаннє: 25.11.20
Повідомлень: 99

2020-07-04 19:55  
А чи є українські субтитри до цього хорошого серіалу?
felya 
Новенький


З нами з: 18.10.10
Востаннє: 23.11.20
Повідомлень: 17

2020-07-07 22:17  
Шкода що без субтитрів.
Ваш часовий пояс: GMT + 2 Години

Нова тема   Відповісти