Мисливці на тролів / Trolljegeren (2010) 1080p Ukr/Nor/Eng | Sub Eng

Нові коментарі

Нова тема   Відповісти
Автор Повідомлення
Anonymous 







2020-04-13 00:23  
Мисливці на тролів / Trolljegeren (2010) 1080p Ukr/Nor/Eng | Sub Eng


Оригінальний постер

Мисливці на тролів / Trolljegeren (2010) 1080p Ukr/Nor/Eng | Sub Eng




Жанр: фентезі, пригодницький, містика, жахи
Країна: Норвегія


Кінокомпанія: Filmkameratene A/S, Film Fund FUZZ, SF Norge A/S
Режисер: Андре Овредал / André Øvredal
Актори: Отто Джесперсен, Штольтенберґ, Кнут Нейрум...

Сюжет:
Група студентів робить документальний фільм про Ганса, якого підозрюють у браконьєрстві на ведмедя. З'ясовується, що Ганс веде відлюдний спосіб життя. Коли вони намагаються взяти у нього інтерв'ю, він відповідає неохоче і проганяє їх геть, але вони продовжують ходити за ним слідом. Вночі студенти поїхали за ним у ліс і вийшли зі своєї машини, то побачили миготливі вогні і почули жахливий рев. Ганс біжить назад до своєї машини, кричучи «Троль!». Студенти сховалися у Гансовій машині, але одного з них було поранено. Пізніше побачили, що їхня власна машина розбита, а шини з'їдені. Нарешті Ганс повідомив, що тролі існують і дав дозвіл приєднатися до його полювання та знімати на камеру за умови, якщо вони будуть чітко виконувати його накази.

Тривалість:
Якість: 1080p
Примітка: ріп зроблений з Remux(EUR)
Відео:
Кодек: H264
Розмір кадру: 1920x1040
Бітрейт: 17.2 Мбіт/с

Аудіо #1:
Мова: українська
Переклад: Багатоголосий закадровий [НЛО]

Кодек: 5.1
Бітрейт: 384 Кбіт/с

Аудіо #2:
Мова: норвезька
Переклад: Оригінал
Кодек: 5.1
Бітрейт: 1509 Кбіт/с

Аудіо #3:
Мова: англійська
Переклад: Оригінал
Кодек: 5.1
Бітрейт: 448 Кбіт/с

Субтитри:
Мова: англійська | Повні
Тип: програмні (м'які)
Формат: *.srt

Info


General
Unique ID : 248980789577407707264102672647401008417 (0xBB4FF4B0C760988763B0CAC6267C6D21)
Format :
Format version : Version 4
File size : 14.1 GiB
Duration : 1 h 43 min
Overall bit rate : 19.5 Mb/s
Movie name : Trolljegeren (2010) 1080p [UkrNorEng][SubEng] [Hutrom]
Encoded date : UTC 2020-04-12 20:47:43
Writing application : v45.0.0 ('Heaven in Pennies') 64-bit
Writing library : libebml v1.3.10 + v1.5.2
Attachments : poster ukr.jpg / poster eng.jpg

Video
ID : 1
Format : AVC
Format/Info : Advanced Video Codec
Format profile : [email protected]
Format settings : CABAC / 4 Ref Frames
Format settings, CABAC : Yes
Format settings, Reference fra : 4 frames
Codec ID : V_MPEG4/ISO/AVC
Duration : 1 h 43 min
Bit rate : 17.2 Mb/s
Width : 1 920 pixels
Height : 1 040 pixels
Display aspect ratio : 1.85:1
Frame rate mode : Constant
Frame rate : 23.976 (24000/1001) FPS
Color space : YUV
Chroma subsampling : 4:2:0
Bit depth : 8 bits
Scan type : Progressive
Bits/(Pixel*Frame) : 0.359
Stream size : 12.4 GiB (88%)
Title : 1920x1040p
Writing library : core 159
Encoding settings : cabac=1 / ref=4 / deblock=1:-3:-3 / analyse=0x3:0x133 / me=umh / subme=10 / psy=1 / psy_rd=1.00:0.00 / mixed_ref=1 / me_range=24 / chroma_me=1 / trellis=2 / 8x8dct=1 / cqm=0 / deadzone=21,11 / fast_pskip=0 / chroma_qp_offset=-2 / threads=18 / lookahead_threads=3 / sliced_threads=0 / nr=0 / decimate=1 / interlaced=0 / bluray_compat=0 / constrained_intra=0 / bframes=8 / b_pyramid=2 / b_adapt=2 / b_bias=0 / direct=3 / weightb=1 / open_gop=0 / weightp=2 / keyint=250 / keyint_min=23 / scenecut=40 / intra_refresh=0 / rc_lookahead=60 / rc=crf / mbtree=1 / crf=18.0 / qcomp=0.60 / qpmin=0 / qpmax=69 / qpstep=4 / ip_ratio=1.40 / aq=1:1.00
Language : Norwegian
Default : Yes
Forced : No

Audio #1
ID : 2
Format : AC-3
Format/Info : Audio Coding 3
Commercial name : Dolby Digital
Codec ID : A_AC3
Duration : 1 h 43 min
Bit rate mode : Constant
Bit rate : 384 kb/s
Channel(s) : 6 channels
Channel layout : L R C LFE Ls Rs
Sampling rate : 48.0 kHz
Frame rate : 31.250 FPS (1536 SPF)
Bit depth : 16 bits
Compression mode : Lossy
Delay relative to video : -42 ms
Stream size : 285 MiB (2%)
Title : Багатоголосий закадровий [НЛО] 5.1 @ 384 Кбіт/с
Language : Ukrainian
Service kind : Complete Main
Default : Yes
Forced : No

Audio #2
ID : 3
Format :
Format/Info : Digital Theater Systems
Codec ID : A_DTS
Duration : 1 h 43 min
Bit rate mode : Constant
Bit rate : 1 509 kb/s
Channel(s) : 6 channels
Channel layout : C L R Ls Rs LFE
Sampling rate : 48.0 kHz
Frame rate : 93.750 FPS (512 SPF)
Bit depth : 16 bits
Compression mode : Lossy
Delay relative to video : -42 ms
Stream size : 1.09 GiB (8%)
Title : [Оригінал] 5.1 @ 1509 Кбіт/с
Language : Norwegian
Default : No
Forced : No

Audio #3
ID : 4
Format : AC-3
Format/Info : Audio Coding 3
Commercial name : Dolby Digital
Codec ID : A_AC3
Duration : 1 h 43 min
Bit rate mode : Constant
Bit rate : 448 kb/s
Channel(s) : 6 channels
Channel layout : L R C LFE Ls Rs
Sampling rate : 48.0 kHz
Frame rate : 31.250 FPS (1536 SPF)
Bit depth : 16 bits
Compression mode : Lossy
Delay relative to video : -42 ms
Stream size : 332 MiB (2%)
Title : [Професійний дубляж] 5.1 @ 448 Кбіт/с
Language : English
Service kind : Complete Main
Default : No
Forced : No

Text
ID : 5
Format : UTF-8
Codec ID : S_TEXT/UTF8
Codec ID/Info : UTF-8 Plain Text
Duration : 1 h 43 min
Bit rate : 36 b/s
Count of elements : 743
Stream size : 27.5 KiB (0%)
Title : Повні
Language : English
Default : No
Forced : No

Menu
00:00:00.000 : :00:00:00.000
00:10:50.775 : :00:10:50.775
00:20:31.063 : :00:20:31.063
00:31:23.673 : :00:31:23.673
00:40:55.453 : :00:40:55.453
00:52:24.141 : :00:52:24.141
01:02:40.173 : :01:02:40.173
01:13:07.216 : :01:13:07.216
01:23:19.703 : :01:23:19.703
01:28:27.219 : :01:28:27.219
01:34:54.022 : :01:34:54.022
01:40:24.268 : :01:40:24.268
Скріншоти







Джерело: & інше


 Трекер:    Зареєстрований   

Завантажити / скачати фільм українською



відео для новачків



 Зареєстрований:   2020-04-13 00:23
 Розмір:   14.14 GB 
 Оцінка фільму:   5.3/10 (Голосів: 4)
   
Ваш часовий пояс: GMT + 2 Години

Нова тема   Відповісти