У високій траві / In the Tall Grass (2019) AVC Ukr/Eng | sub Ukr

Нові коментарі

Нова тема   Відповісти
Автор Повідомлення
sardarov98 
Новенький


З нами з: 10.03.12
Востаннє: 05.08.20
Повідомлень: 18

2020-04-12 22:13  
У високій траві / In the Tall Grass (2019) AVC Ukr/Eng | sub Ukr

У високій траві / In the Tall Grass (2019) AVC Ukr/Eng | sub Ukr


Жанр: жахи, драма, трилер
Країна: Канада



Кінокомпанія: Copperheart Entertainment, Netflix, Tendril Design + Animation
Режисер: Вінченцо Наталі
Актори: Лейсла Де Олівейра, Ейвері Віттед, Патрік Вілсон, Харрісон Гілберстон, Тіффані Гельм, Рейчел Вілсон

Сюжет:
Брат з сестрою Кел та Беккі вирушають у подорож Америкою на машині. У Канзасі герої раптово чують дитячий крик про допомогу, що лунає з кукурудзяного поля. Вони вирішують допомогти, але коли заходять у поле з високою травою, вони вже не можуть з нього вибратися.


Тривалість: 01:41:54
Якість:
Відео:
кодек:
розмір кадру: 1024 х 432
бітрейт: 1785 кб/с

Аудіо # 1:
мова: українська
переклад: багатоголосий закадровий |DoReMi Studio
кодек: 2.0
бітрейт: 192 кб/с

Аудіо # 2:
мова: англійська
переклад: оригінал
кодек: 5.1
бітрейт: 448 кб/с

Субтитри:
мова: українська
тип: програмні (м'які)
формат: *.srt
переклад: SubAutumn

Джерело озвучення: DoReMi Studio
Текст читали: Катерина Брайковська, Михайло Карпань, Юлія Малахова, Віталій Ізмалков та Євгеній Сардаров
Info
Код:
Complete name               : In the Tall Grass (2019)[Ukr.Eng Sub.Ukr] AVC DoReMi.
Format                      :
Format version              : Version 4
File size                   : 1.72 GiB
Duration                    : 1 h 41 min
Overall bit rate            : 2 422 kb/s
Movie name                  : In the Tall Grass (2019)[Eng Sub.Ukr] AVC [Hurtom]
Encoded date                : UTC 2020-04-12 18:56:38
Writing application         : v44.0.0 ('Domino') 64-bit
Writing library             : libebml v1.3.10 + v1.5.2

Video
ID                          : 1
Format                      : AVC
Format/Info                 : Advanced Video Codec
Format profile              : [email protected]
Format settings             : CABAC / 11 Ref Frames
Format settings, CABAC      : Yes
Format settings, Reference  : 11 frames
Codec ID                    : V_MPEG4/ISO/AVC
Duration                    : 1 h 41 min
Bit rate                    : 1 785 kb/s
Width                       : 1 024 pixels
Height                      : 432 pixels
Display aspect ratio        : 2.40:1
Frame rate mode             : Constant
Frame rate                  : 24.000 FPS
Color space                 : YUV
Chroma subsampling          : 4:2:0
Bit depth                   : 8 bits
Scan type                   : Progressive
Bits/(Pixel*Frame)          : 0.168
Stream size                 : 1.27 GiB (73%)
Writing library             : core 148 r2638 7599210
Encoding settings           : cabac=1 / ref=11 / deblock=1:0:0 / analyse=0x3:0x113 / me=umh / subme=10 / psy=1 / psy_rd=1.00:0.15 / mixed_ref=1 / me_range=48 / chroma_me=1 / trellis=2 / 8x8dct=1 / cqm=0 / deadzone=21,11 / fast_pskip=1 / chroma_qp_offset=-1 / threads=6 / lookahead_threads=1 / sliced_threads=0 / nr=0 / decimate=1 / interlaced=0 / bluray_compat=0 / constrained_intra=0 / bframes=3 / b_pyramid=2 / b_adapt=2 / b_bias=0 / direct=3 / weightb=1 / open_gop=0 / weightp=2 / keyint=240 / keyint_min=23 / scenecut=40 / intra_refresh=0 / rc_lookahead=40 / rc=2pass / mbtree=1 / bitrate=1785 / ratetol=1.0 / qcomp=0.60 / qpmin=0 / qpmax=69 / qpstep=4 / cplxblur=20.0 / qblur=0.5 / vbv_maxrate=50000 / vbv_bufsize=62500 / nal_hrd=none / filler=0 / ip_ratio=1.40 / aq=1:1.00
Default                     : Yes
Forced                      : No

Audio #1
ID                          : 2
Format                      : AC-3
Format/Info                 : Audio Coding 3
Commercial name             : Dolby Digital
Codec ID                    : A_AC3
Duration                    : 1 h 41 min
Bit rate mode               : Constant
Bit rate                    : 192 kb/s
Channel(s)                  : 2 channels
Channel layout              : L R
Sampling rate               : 48.0 kHz
Frame rate                  : 31.250 FPS (1536 SPF)
Compression mode            : Lossy
Stream size                 : 140 MiB (8%)
Language                    : Ukrainian
Service kind                : Complete Main
Default                     : Yes
Forced                      : No

Audio #2
ID                          : 3
Format                      : AC-3
Format/Info                 : Audio Coding 3
Commercial name             : Dolby Digital
Codec ID                    : A_AC3
Duration                    : 1 h 41 min
Bit rate mode               : Constant
Bit rate                    : 448 kb/s
Channel(s)                  : 6 channels
Channel layout              : L R C LFE Ls Rs
Sampling rate               : 48.0 kHz
Frame rate                  : 31.250 FPS (1536 SPF)
Compression mode            : Lossy
Stream size                 : 327 MiB (18%)
Title                       : Original
Language                    : English
Service kind                : Complete Main
Default                     : No
Forced                      : No

Text
ID                          : 4
Format                      : UTF-8
Codec ID                    : S_TEXT/UTF8
Codec ID/Info               : UTF-8 Plain Text
Duration                    : 1 h 33 min
Bit rate                    : 58 b/s
Count of elements           : 926
Stream size                 : 40.2 KiB (0%)
Title                       : In the Tall Grass (2019)[Eng Sub.Ukr] AVC [Hurtom]
Language                    : Ukrainian
Default                     : Yes
Forced                      : No
Скріншоти



Джерело: & &
Українізація постера: Otaku-First


Авторський реліз (завантажувати можна без реєстрації)
 Трекер:    Зареєстрований   

Завантажити / скачати фільм українською



відео для новачків



 Зареєстрований:   2020-04-12 22:13
 Розмір:   1.72 GB 
 Оцінка фільму:   7.8/10 (Голосів: 42)
   
igor911 
Модератор відео


З нами з: 18.01.08
Востаннє: 09.08.20
Повідомлень: 14935

2020-04-12 22:18  
sardarov98 написано:
Субтитри:
мова: українська

переклад SubAutumn?

sardarov98 
Новенький


З нами з: 10.03.12
Востаннє: 05.08.20
Повідомлень: 18

2020-04-12 22:23  
igor911
так

don pedro 
Попереджень: 1
Попереджень: 1 


З нами з: 29.06.11
Востаннє: 08.08.20
Повідомлень: 17400

2020-04-13 02:15  
На постері вказано, що фільм знято за новелою. Насправді, слід писати "за романом", бо новела в США і в Україні - зовсім різні літературні форми. Це у нас розповсюджена помилка.
Вибачайте за в'їдливістьHappy

5hjk5 
Новенький


З нами з: 21.11.11
Востаннє: 07.08.20
Повідомлень: 6

2020-04-13 02:53  
Буде висока якість???
Mikhaeller 
Новенький


З нами з: 27.12.17
Востаннє: 05.08.20
Повідомлень: 4

2020-04-13 03:21  
Фільм маревний, але на один раз піде
don pedro 
Попереджень: 1
Попереджень: 1 


З нами з: 29.06.11
Востаннє: 08.08.20
Повідомлень: 17400

2020-04-13 03:37  
Добротний фільм. Творці не шукали простих шляхів. Демонічно видозмінені "Робінзони в кукурудзі" Всеволода Нестайка. Рейтинг занижено.
sardarov98 
Новенький


З нами з: 10.03.12
Востаннє: 05.08.20
Повідомлень: 18

2020-04-13 11:38  
Mikhaeller
буде

don pedro 
Попереджень: 1
Попереджень: 1 


З нами з: 29.06.11
Востаннє: 08.08.20
Повідомлень: 17400

2020-04-13 12:13  
Справді гарне озвучення.
igor911 
Модератор відео


З нами з: 18.01.08
Востаннє: 09.08.20
Повідомлень: 14935

2020-04-13 12:18  
5hjk5 написано:
Буде висока якість???

1080p

Imperatore 
Відео Гуртом - підтримка та поширення
Відео Гуртом - підтримка та поширення


З нами з: 09.10.11
Востаннє: 07.08.20
Повідомлень: 342

2020-04-13 14:18  
Раджу подивитись. Досить напружений фільм. Рейтинг реально занижений.
wereman 
Свій


З нами з: 08.01.13
Востаннє: 09.08.20
Повідомлень: 67

2020-04-13 19:52  
Наскільки пам'ятаю, у Кінга це оповідь, досить невеличка. Розтягли її на цілий фільм? Цікаво.
White_123 
Поважний учасник


З нами з: 15.02.13
Востаннє: 04.08.20
Повідомлень: 209

2020-04-14 00:41  
Доволі посередній жахастик, суміш фільмів про петлі часу а-ля День сурка, жахів а-ля Відьми з Блер та програм про природу, бо фільм доволі зелений. В цілому не дуже.
olthik 
Свій


З нами з: 02.03.16
Востаннє: 04.08.20
Повідомлень: 104

2020-04-14 22:46  
Нічого дурнішого не зустрічав.
Bohonek 
Свій


З нами з: 21.12.12
Востаннє: 09.08.20
Повідомлень: 123

2020-04-15 21:04  
Дотримано баланс між світлою і темною порами доби. Доволі оригінальна ідея, але сконструйована з інших прийомів містичних трилерів. 8/10
plitiy 
Частий відвідувач


З нами з: 30.06.09
Востаннє: 15.07.20
Повідомлень: 26

2020-04-15 22:31  
Чудова операторська робота.
begemotokot 
Новенький


З нами з: 27.05.16
Востаннє: 06.08.20
Повідомлень: 7

2020-04-16 00:03  
Не лячний, не психологічний, але знятий цікаво. Якщо є вибір - краще подивитися щось інше. 7/10.
plotinus 
Свій


З нами з: 23.03.15
Востаннє: 26.07.20
Повідомлень: 52

2020-04-16 01:38  
Фільм не дивився, але читав оповідання. wereman має цілковиту рацію - це не роман, це саме оповідання, яке Кінг написав у співавторстві з Джо Хіллом. don pedro теж правий: a novel англійською означає "роман", у нашому розумінні цього слова. "Оповідання" англійською: a short story. Невеличка плутанина з цього приводу є, однак, фільм знятий за мотивами оповідання. І, до речі, оповідка нічогенька, хочу подивитися кіно. Шкодую, що вже знаю весь сюжет.
Nickolassssssss 
VIP


З нами з: 31.05.14
Востаннє: 08.08.20
Повідомлень: 318

2020-04-19 17:33  
Фільм сподобався. Хоч, передивлятись його знову не захочеться, проте знято непогано. Спецефекті поганенькі, але їх тут надзвичайно мало, тому картину не псує. Основний мінус - доводилось гратись з налаштуваннями яскравості кожен раз, коли була зміна день/ніч, не люблю, коли в фільмах занадто темно.
І страшно не було ні разу.

hitmanhunter 
Поважний учасник


З нами з: 15.09.16
Востаннє: 05.08.20
Повідомлень: 186

2020-04-19 17:58  
Норм фільм. Хороша гра акторів і знято теж +\- якісно. Раджу до перегляду. На 7-8 з 10ти точно заслуговує.
Хоча кінцівку можна було б ще трошки більше закрутити,
особливо із малим у кінці)
Nickolassssssss написано:
не люблю, коли в фільмах занадто темно.

Багато що залежить від монітору/проектору і освітлення кімнати.
Якшо дивитись вночі у повній темряві, то ця картинка ще не занадто темна.

Endryss 
Новенький


З нами з: 27.02.10
Востаннє: 01.08.20
Повідомлень: 5

2020-04-20 12:47  
Та ну. Не вартує.
Запутано, перемішано, без сенсу. Намішано всяких неясних переміщень в часі, якоїсь параноїчної психодурні, геройства.
Короч, я люблю Кінга, люблю фантастику, але цей фільм фігня.

Ваш часовий пояс: GMT + 2 Години

Нова тема   Відповісти