Малюк / The Kid (1921) 1080p Eng | Sub Ukr [Німе Кіно]

Нові коментарі

Нова тема   Відповісти
Автор Повідомлення
Anonymous 







2020-04-12 18:48  
Малюк / The Kid (1921) 1080p Eng | Sub Ukr [Німе Кіно]

Малюк / The Kid (1921) 1080p Eng | Sub Ukr [Німе Кіно]


Жанр: комедія, драма, родинний
Країна: США



Кінокомпанія: Charles Chaplin Productions
Режисер: Чарлі Чаплін (Charles Chaplin)
Актори: Чарлі Чаплін (Charles Chaplin), Джекі Куґан (Jackie Coogan), Една Перванс (Edna Purviance), Карл Мілер (Carl Miller) та інші.

Сюжет:
Фільм «Малюк» став першим повнометражним фільмом Чапліна-режисера. Актора на головну роль Малюка - п'ятирічного Джекі Куґана - Чаплін знайшов на сцені, де малюк виступав на рівних з дорослими. Джекі виявився природженим актором і схоплював усе на льоту.
Фільм «Малюк» - це історія дитини, покинутого матір'ю незабаром після народження. Після низки пригод його знаходить мешканець нетрів бідний Чарлі, який вчить дитину тому, що знає сам.


Тривалість: 53:29
Якість:
Відео:
кодек:
розмір кадру: 1440x1080
бітрейт: 7999 кб/с

Аудіо # 1:
мова: відсутня, лише музичний супровід
переклад: оригінал
кодек: -HD MA 1.0
бітрейт: 869 кб/с

Аудіо # 2:
мова: англійська
переклад: коментарі чаплинського історика Чарльза Маланда
кодек: 1.0
бітрейт: 192 кб/с

Джерело озвучення:


Субтитри:
мова: українська
тип: програмні (м'які)
формат: *.
переклад: власний аматорський, з російської
Info
General
Unique ID : 16782969085656996042531365805029126333 (0xCA04842F69C47E12904240FDB74F0BD)
Complete name : The Kid (1921) 1080p [UKR SUB].
Format :
Format version : Version 4
File size : 3.39 GiB
Duration : 53 min 29 s
Overall bit rate mode : Variable
Overall bit rate : 9 065 kb/s
Encoded date : UTC 2020-04-12 09:06:42
Writing application : v45.0.0 ('Heaven in Pennies') 64-bit
Writing library : libebml v1.3.10 + v1.5.2

Video
ID : 1
Format : AVC
Format/Info : Advanced Video Codec
Format profile : [email protected]
Format settings : CABAC / 5 Ref Frames
Format settings, CABAC : Yes
Format settings, Reference : 5 frames
Codec ID : V_MPEG4/ISO/AVC
Duration : 53 min 29 s
Bit rate : 7 999 kb/s
Width : 1 440 pixels
Height : 1 080 pixels
Display aspect ratio : 4:3
Frame rate mode : Constant
Frame rate : 23.976 (24000/1001) FPS
Color space : YUV
Chroma subsampling : 4:2:0
Bit depth : 8 bits
Scan type : Progressive
Bits/(Pixel*Frame) : 0.215
Stream size : 2.99 GiB (88%)
Writing library : core 157 r2935 545de2f
Encoding settings : cabac=1 / ref=5 / deblock=1:-1:-1 / analyse=0x3:0x113 / me=umh / subme=11 / psy=1 / psy_rd=1.00:0.15 / mixed_ref=1 / me_range=48 / chroma_me=1 / trellis=2 / 8x8dct=1 / cqm=0 / deadzone=21,11 / fast_pskip=0 / chroma_qp_offset=-5 / threads=34 / lookahead_threads=5 / sliced_threads=0 / nr=0 / decimate=1 / interlaced=0 / bluray_compat=0 / constrained_intra=0 / bframes=8 / b_pyramid=2 / b_adapt=2 / b_bias=0 / direct=1 / weightb=1 / open_gop=0 / weightp=2 / keyint=240 / keyint_min=23 / scenecut=40 / intra_refresh=0 / rc_lookahead=60 / rc=2pass / mbtree=1 / bitrate=7999 / ratetol=1.0 / qcomp=0.60 / qpmin=10 / qpmax=69 / qpstep=4 / cplxblur=20.0 / qblur=0.5 / vbv_maxrate=50000 / vbv_bufsize=62500 / nal_hrd=none / filler=0 / ip_ratio=1.40 / aq=1:1.00
Default : Yes
Forced : No

Audio #1
ID : 2
Format : XLL
Format/Info : Digital Theater Systems
Commercial name : -HD Master Audio
Codec ID : A_DTS
Duration : 53 min 29 s
Bit rate mode : Variable
Bit rate : 869 kb/s
Channel(s) : 1 channel
Channel layout : C
Sampling rate : 48.0 kHz
Frame rate : 93.750 FPS (512 SPF)
Bit depth : 24 bits
Compression mode : Lossless
Stream size : 332 MiB (10%)
Default : Yes
Forced : No

Audio #2
ID : 3
Format : AC-3
Format/Info : Audio Coding 3
Commercial name : Dolby Digital
Codec ID : A_AC3
Duration : 53 min 29 s
Bit rate mode : Constant
Bit rate : 192 kb/s
Channel(s) : 1 channel
Channel layout : C
Sampling rate : 48.0 kHz
Frame rate : 31.250 FPS (1536 SPF)
Compression mode : Lossy
Stream size : 73.5 MiB (2%)
Service kind : Complete Main
Default : No
Forced : No

Text
ID : 4
Format :
Codec ID : S_TEXT/
Codec ID/Info : Advanced Sub Station Alpha
Duration : 52 min 26 s
Bit rate : 14 b/s
Count of elements : 76
Compression mode : Lossless
Stream size : 5.63 KiB (0%)
Default : Yes
Forced : No
Скріншоти






Цікаві факти
- Тривалість початкової версії картини: 68 хвилин.

- Чаплін зняв «Малюка» в рамках договору з компанією «First National», який передбачав створення ним восьми двухчастинних короткометражних фільмів. Хоча «Малюк» був повнометражним фільмом (6 частин), компанія спробувала "зарахувати" його як коротометражний і виплатити за нього Чапліну втричі меншу суму, ніж він розраховував - 500 тисяч доларів замість 1,5 мільйона. Аби не допустити приймати ці умови, Чаплін повіз із собою копію фільму і торгувався з компанією до тих пір, поки не добився прийнятних для себе умов.

- Це був перший повнометражний авторський фільм Чапліна, який довів, що його стилістика і постановочний підхід цілком здатні існувати не тільки в звичному для публіки короткому метрі. Комедійні епізоди поєднувалися в фільмі з лірикою, драматизмом сюжету, жорсткої соціальної критикою і метафоричними кадрами. Чапліну вдалося реалістично показати життя міських "низів". «Малюк» і зараз залишається одним з найвідоміших творів Чапліна.

- Чарлі настільки захопився зйомками, що порушив усі можливі терміни здачі роботи, і його контракт зі студією «First National» був під загрозою розірвання. Студія все ж дала Чарлі додатковий час на завершення фільму, коли побачила процес зйомок і гру Джекі.

- «Малюк» вийшов в прокаті з неймовірним успіхом і став другим за касовими зборами фільмом 1921 роки (його випередив лише фільм Рекса Інгрема «Чотири вершники Апокаліпсису» з Рудольфом Валентино).

- Зйомки зайняли 154 робочих дня, а ще 118 робочих днів знадобилося на його монтаж.

- Зйомки фільму були закінчені в 1920 році незабаром після розлучення Чапліна з його першою дружиною Мілдред Харріс, яка намагалася через суд конфіскувати в свою користь відзнятий матеріал. Чаплін змушений був вивезти плівку з студії в Солт-Лейк-Сіті, де ховаючись від судових приставів, закінчив монтаж фільму.

- У фільмі грає дівчинка, якій судилося стати другою дружиною Чарлі Чапліна. Ця 12-річна крихітка грала не кого-небудь, а ангела. Звали її Літа Грей (Lita Grey).

- Про режисерської вимогливості Чапліна можна судити по тому, що в готовий фільм увійшло менше 2% відзнятого матеріалу - співвідношення вкрай нехарактерне для кінематографа того часу.

- Зйомки фільму почалися в липні 1919 року. Спочатку фільм отримав назву «Безпритульний» (The Waif), проте вже в процесі роботи над ним Чарлі перейменував його в «Малюк».

- Актора на роль Малюка, п'ятирічного Джекі Куган, Чаплін знайшов на сцені, де дитина виступала на рівних з дорослими. Джекі виявився природженим актором і схоплював все на льоту.

- Джекі Куган був сином актора вар'єте Джека Куган-старшого (у фільмі він зіграв роль Диявола в "райському" епізоді). Чарлі Чаплін уклав договір з Куганом-старшим, отримавши тим самим можливість знімати Кугана-молодшого.

- Цим фільмом Чарлі також фактично створив Дж. Кугана як актора, а також сформував тематику більшості майбутніх його фільмів.

- У 1971 році Чаплін випустив в прокат оновлену версію «Малюка» зі спеціально написаним для фільму музичним супроводом. Музичним лейтмотивом фільму стала цитата з Симфонії №6 Петра Ілліча Чайковського.
Помилки у фільмі
- Коли жінка, роздаючи іграшки дітям, сідає на тротуар, то лежачий біля неї м'ячик відкочується. Через декілька кадрів м'яч знову лежить на тротуарі.
Джерело:
Особиста оцінка: 8 - мені сподобалося


 Трекер:    Зареєстрований   

Завантажити / скачати фільм українською



відео для новачків



 Зареєстрований:   2020-04-12 18:48
 Розмір:   3.39 GB 
 Оцінка фільму:   9.3/10 (Голосів: 3)
   
Інші релізи
   Малюк / The Kid (1921) AVC Eng | Sub Ukr [Німе Кіно] roalad  1 / 0   839 MB   2020-04-17 21:31 
   Малюк / The Kid (1921) Remux 1080p Eng | Sub Ukr [Німе Кіно] roalad  2 / 0   13.32 GB   2020-04-12 18:56 
   Малюк / The Kid (1921) 720p Eng | Sub Ukr Hurtomivets'  2 / 0   2.19 GB   2010-07-01 18:18 
bot 
робот


З нами з: 30.09.07
Востаннє: 26.05.05
Повідомлень: 26411

2020-04-13 18:28  
Тему перенесено з Фільми в HD до форуму Фільми


11FrYkT

11FrYkT 
Модератор відео


З нами з: 20.02.11
Востаннє: 29.11.20
Повідомлень: 7038

2020-04-13 18:28  
Anonymous , скріншоти повинні бути у форматі ПНГ
Anonymous 







2020-04-13 21:54  
11FrYkT
Поправив

Ваш часовий пояс: GMT + 2 Години

Нова тема   Відповісти