Щоденники няні / The Nanny Diaries (2007) AVC 3xUkr/Eng | Sub Ukr/Eng

Нові коментарі

Нова тема   Відповісти
Автор Повідомлення
Arsenfpu 
Відео Гуртом - фільмокрай
Відео Гуртом - фільмокрай


З нами з: 30.04.09
Востаннє: 11.07.20
Повідомлень: 7051

2020-04-12 19:40  
Щоденники няні / The Nanny Diaries (2007) AVC 3xUkr/Eng | Sub Ukr/Eng

Щоденники няні / The Nanny Diaries (2007) AVC 3xUkr/Eng | Sub Ukr/Eng


Жанр: драма, комедія, мелодрама
Країна: США



Кінокомпанія: FilmColony. The Weinstein Company LLC
Режисер: Шері Спрінгер Берман, Роберт Пулчіні
Актори: Скарлет Йохансон, Аліша Кіс, Лора Лінні, Донна Мерфі, Ніколас Арт, Кейді Хаффман, Пол Джаматті, Кріс Еванс, Бранде Родерік, Натан Кордрі

Сюжет:
Молода студентка коледжу з робочого класу, влаштовуючись підробити нянею в одній з багатих сімей з Манхеттена, ніяк не могла передбачати, з якими складнощами все це для неї обернеться. Самозакохана дружина, вічно десь пропадає, чоловік та розпещений шестирічний син постійно стають джерелами проблем для неї. Протягом дев'ятимісячного періоду її перебування в будинку відносини подружжя все більше і більше ускладнюються, а самій няні доводиться справлятися зі своїми навчальними заняттями, сімейними проблемами роботодавців, власним романтичним захопленням і розпещеним малюком.


Тривалість: 01:44:41
Якість:
Відео:
кодек:
розмір кадру: 1 024 х 576
бітрейт: 2 736 кб/с

Аудіо # 1:
мова: українська
переклад: багатоголосий закадровий 34 канал,
кодек: 2.0
бітрейт: 192 кб/с

Аудіо # 2:
мова: українська
переклад: двоголосий закадровий
кодек: 2.0
бітрейт: 192 кб/с

Аудіо # 3:
мова: українська
переклад: багатоголосий закадровий
кодек: 2.0
бітрейт: 192 кб/с

Аудіо # 4:
мова: англійська
переклад: оригінал
кодек: 2.0
бітрейт: 192 кб/с

Субтитри:
мова: українська
тип: програмні (м'які)
формат: *.srt

Субтитри:
мова: англійська
тип: програмні (м'які)
формат: *.srt
Скріншоти














Про файл
General
Unique ID : 119448258669887539974985606131085870712 (0x59DCE5D761E612F4C40AC5381C2A0678)
Complete name : C:\The Nanny Diaries (2007) [3xUkr,Eng] AVC [Hurtom].
Format :
Format version : Version 4 / Version 2
File size : 2.61 GiB
Duration : 1 h 44 min
Overall bit rate : 3 570 kb/s
Movie name : Щоденники няні / The Nanny Diaries (2007)
Encoded date : UTC 2020-04-12 16:06:26
Writing application : v21.0.0 ('Tardigrades Will Inherit The Earth') 32-bit
Writing library : libebml v1.3.5 + v1.4.8
Cover : Yes
Attachments : cover.jpg

Video
ID : 1
Format : AVC
Format/Info : Advanced Video Codec
Format profile : [email protected]
Format settings, CABAC : Yes
Format settings, ReFrames : 9 frames
Codec ID : V_MPEG4/ISO/AVC
Duration : 1 h 44 min
Bit rate : 2 736 kb/s
Width : 1 024 pixels
Height : 576 pixels
Display aspect ratio : 16:9
Frame rate mode : Constant
Frame rate : 23.976 (24000/1001) FPS
Color space : YUV
Chroma subsampling : 4:2:0
Bit depth : 8 bits
Scan type : Progressive
Bits/(Pixel*Frame) : 0.193
Stream size : 2.00 GiB (77%)
Writing library : core 146 r2538 121396c
Encoding settings : cabac=1 / ref=9 / deblock=1:-2:-2 / analyse=0x3:0x113 / me=umh / subme=10 / psy=1 / psy_rd=1.00:0.15 / mixed_ref=1 / me_range=32 / chroma_me=1 / trellis=2 / 8x8dct=1 / cqm=0 / deadzone=21,11 / fast_pskip=1 / chroma_qp_offset=-3 / threads=6 / lookahead_threads=1 / sliced_threads=0 / nr=0 / decimate=1 / interlaced=0 / bluray_compat=0 / constrained_intra=0 / bframes=8 / b_pyramid=2 / b_adapt=2 / b_bias=0 / direct=1 / weightb=1 / open_gop=0 / weightp=2 / keyint=230 / keyint_min=23 / scenecut=40 / intra_refresh=0 / rc_lookahead=40 / rc=crf / mbtree=0 / crf=18.9 / qcomp=0.60 / qpmin=0 / qpmax=69 / qpstep=4 / vbv_maxrate=40000 / vbv_bufsize=50000 / crf_max=0.0 / nal_hrd=none / filler=0 / ip_ratio=1.40 / pb_ratio=1.30 / aq=1:1.00
Language : English
Default : Yes
Forced : No

Audio #1
ID : 2
Format : AC-3
Format/Info : Audio Coding 3
Mode extension : CM (complete main)
Format settings, Endianness : Big
Codec ID : A_AC3
Duration : 1 h 44 min
Bit rate mode : Constant
Bit rate : 192 kb/s
Channel(s) : 2 channels
Channel positions : Front: L R
Sampling rate : 48.0 kHz
Frame rate : 31.250 FPS (1536 spf)
Compression mode : Lossy
Stream size : 144 MiB (5%)
Title : Україна
Language : Ukrainian
Default : Yes
Forced : Yes

Audio #2
ID : 3
Format : AC-3
Format/Info : Audio Coding 3
Mode extension : CM (complete main)
Format settings, Endianness : Big
Codec ID : A_AC3
Duration : 1 h 44 min
Bit rate mode : Constant
Bit rate : 192 kb/s
Channel(s) : 2 channels
Channel positions : Front: L R
Sampling rate : 48.0 kHz
Frame rate : 31.250 FPS (1536 spf)
Compression mode : Lossy
Stream size : 144 MiB (5%)
Title : Новий
Language : Ukrainian
Default : No
Forced : No

Audio #3
ID : 4
Format : AC-3
Format/Info : Audio Coding 3
Mode extension : CM (complete main)
Format settings, Endianness : Big
Codec ID : A_AC3
Duration : 1 h 44 min
Bit rate mode : Constant
Bit rate : 256 kb/s
Channel(s) : 2 channels
Channel positions : Front: L R
Sampling rate : 48.0 kHz
Frame rate : 31.250 FPS (1536 spf)
Compression mode : Lossy
Stream size : 192 MiB (7%)
Title : К1
Language : Ukrainian
Default : No
Forced : No

Audio #4
ID : 5
Format : AC-3
Format/Info : Audio Coding 3
Mode extension : CM (complete main)
Format settings, Endianness : Big
Codec ID : A_AC3
Duration : 1 h 44 min
Bit rate mode : Constant
Bit rate : 192 kb/s
Channel(s) : 2 channels
Channel positions : Front: L R
Sampling rate : 48.0 kHz
Frame rate : 31.250 FPS (1536 spf)
Compression mode : Lossy
Stream size : 144 MiB (5%)
Language : English
Default : No
Forced : No

Text #1
ID : 6
Format : UTF-8
Codec ID : S_TEXT/UTF8
Codec ID/Info : UTF-8 Plain Text
Duration : 1 h 40 min
Bit rate : 93 b/s
Count of elements : 1525
Stream size : 68.3 KiB (0%)
Language : Ukrainian
Default : Yes
Forced : No

Text #2
ID : 7
Format : UTF-8
Codec ID : S_TEXT/UTF8
Codec ID/Info : UTF-8 Plain Text
Duration : 1 h 40 min
Bit rate : 97 b/s
Count of elements : 1864
Stream size : 71.8 KiB (0%)
Language : English
Default : No
Forced : No
Джерело:
За запис з 34 каналу дякую пану РОМЕО
За доріжки від К1 та Нового дякую п. igrik09, Breniak, xslim, Gelios
За постер дякую пану dr_stas
Особиста оцінка: не дивився


 Трекер:    Зареєстрований   

Завантажити / скачати фільм українською



відео для новачків



 Зареєстрований:   2020-04-12 19:40
 Розмір:   2.61 GB 
 Оцінка фільму:   9.3/10 (Голосів: 3)
   
Інші релізи
Ваш часовий пояс: GMT + 2 Години

Нова тема   Відповісти