Земля до початку часів 5. Таємничий острів / The Land Before Time V. The Mysterious Island (1997) 1080p Ukr/Eng | sub Eng

Нові коментарі

Нова тема   Відповісти
Автор Повідомлення
sergiyko.5 
VIP


З нами з: 25.02.16
Востаннє: 08.07.20
Повідомлень: 3241

2020-04-12 17:39  
Всі одноіменні релізи на трекері

Земля до початку часів 5. Таємничий острів / The Land Before Time V. The Mysterious Island (1997) 1080p Ukr/Eng | sub Eng


Земля до початку часів 5. Таємничий острів / The Land Before Time V. The Mysterious Island (1997) 1080p Ukr/Eng | sub Eng

Жанр: мультфільм, пригодницький, сімейний
Країна: США
Кінокомпанія: Universal Cartoon Studios
Режисер: Чарльз Гросвенор

Сюжет:
Велика Долина завжди була тим єдиним місцем, де динозаври всіх мастей жили в мирі та взаємній гармонії. Їжі всюди було більш ніж достатньо, і тому мешканці Великої Долини були ситі, спокійні та миролюбиві.
Але, на жаль, ця ідилія не могла тривати вічно: на Велику Долину напала ненажерлива ​​сарана, яка обгризла в окрузі все листя. Флегматичні травоїдні ящери відразу позбулися всіх запасів їжі; тепер доведеться чекати, доки у Великій Долині знову виростуть листя!
Поки дорослі динозаври сперечалися, як їм бути далі й де шукати їжу, Літлфут та його весела компанія вирушили у подорож. Шлях маленьких героїв лежав через Велику Воду до берегів Таємничого Острова!




Тривалість: 01:13:21
Якість:

Відео: кодек: розмір кадру: 1920 х 1080 бітрейт: 13700 кб/с
Аудіо # 1: мова: українська переклад: багатоголосий закадровий кодек: 2.0 бітрейт: 192 кб/с
Озвучення:
Аудіо # 2: мова: англійська переклад: оригінал кодек: + 2.0 бітрейт: 224 кб/с
Субтитри: мова: англійська тип: програмні (м'які) формат: *.srt
Про файл:
General
Unique ID : 29396520483954205195707632756985176223 (0x161D905C262CDD710DB41317C0D4209F)
Complete name : C:\Users\Sergij\Documents\The Land Before Time 5.The Mysterious Island.1997.1080p..
Format :
Format version : Version 4
File size : 7.36 GiB
Duration : 1 h 13 min
Overall bit rate mode : Variable
Overall bit rate : 14.4 Mb/s
Movie name : The Land Before Time 5 by sergiyko
Encoded date : UTC 2020-04-12 15:06:49
Writing application : v44.0.0 ('Domino') 64-bit
Writing library : libebml v1.3.10 + v1.5.2

Video
ID : 1
Format : AVC
Format/Info : Advanced Video Codec
Format profile : [email protected]
Format settings : CABAC / 4 Ref Frames
Format settings, CABAC : Yes
Format settings, Reference : 4 frames
Codec ID : V_MPEG4/ISO/AVC
Duration : 1 h 13 min
Bit rate mode : Variable
Bit rate : 14.0 Mb/s
Maximum bit rate : 15.0 Mb/s
Width : 1 920 pixels
Height : 1 080 pixels
Display aspect ratio : 16:9
Frame rate mode : Constant
Frame rate : 23.976 (24000/1001) FPS
Color space : YUV
Chroma subsampling : 4:2:0
Bit depth : 8 bits
Scan type : Progressive
Bits/(Pixel*Frame) : 0.281
Stream size : 7.15 GiB (97%)
Title : The Land Before Time 5
Language : English
Default : Yes
Forced : No
Color range : Limited
Color primaries : BT.709
Transfer characteristics : BT.709
Matrix coefficients : BT.709

Audio #1
ID : 2
Format : AC-3
Format/Info : Audio Coding 3
Commercial name : Dolby Digital
Codec ID : A_AC3
Duration : 1 h 13 min
Bit rate mode : Constant
Bit rate : 192 kb/s
Channel(s) : 2 channels
Channel layout : L R
Sampling rate : 48.0 kHz
Frame rate : 31.250 FPS (1536 SPF)
Compression mode : Lossy
Stream size : 101 MiB (1%)
Title : MOV | К1
Language : Ukrainian
Service kind : Complete Main
Default : Yes
Forced : Yes

Audio #2
ID : 3
Format : E-AC-3
Format/Info : Enhanced AC-3
Commercial name : Dolby Digital Plus
Codec ID : A_EAC3
Duration : 1 h 13 min
Bit rate mode : Constant
Bit rate : 224 kb/s
Channel(s) : 2 channels
Channel layout : L R
Sampling rate : 48.0 kHz
Frame rate : 31.250 FPS (1536 SPF)
Compression mode : Lossy
Delay relative to video : 21 ms
Stream size : 118 MiB (2%)
Title : Original
Language : English
Service kind : Complete Main
Default : No
Forced : No

Text
ID : 4
Format : UTF-8
Codec ID : S_TEXT/UTF8
Codec ID/Info : UTF-8 Plain Text
Duration : 1 h 8 min
Bit rate : 48 b/s
Count of elements : 982
Stream size : 24.5 KiB (0%)
Language : English
Default : No
Forced : No
Скріншоти:


Запис/зведення: sergiyko


Срібний реліз (на рейтинг впливає 50% завантаженого)
 Трекер:    Зареєстрований   

Завантажити / скачати мультфільм українською



відео для новачків



 Зареєстрований:   2020-04-18 01:00
 Розмір:   7.36 GB 
 Оцінка мультфільму:   10/10 (Голосів: 7)
   
max factor 
Частий відвідувач


З нами з: 08.01.19
Востаннє: 22.06.20
Повідомлень: 42

2020-04-12 20:21  
Величезний респект автору Wink (1). Від усіх включаючи мене хто чекав цей мультфільм Wink (1) Happy .
MutuLI 
Відео Гуртом - фільмокрай
Відео Гуртом - фільмокрай


З нами з: 08.03.09
Востаннє: 08.07.20
Повідомлень: 1890

2020-04-13 07:52  
Ше треба тільки 13 і будуть всі частини. Дякую.
kpomed 
Частий відвідувач


З нами з: 12.10.13
Востаннє: 08.07.20
Повідомлень: 30

2020-04-15 18:39  
Так, дякую.
max factor 
Частий відвідувач


З нами з: 08.01.19
Востаннє: 22.06.20
Повідомлень: 42

2020-04-17 21:07  
Звукова доріжка в 2 місцях відстає від відео. Якщо можете, виправіть будь - ласка.
sergiyko.5 
VIP


З нами з: 25.02.16
Востаннє: 08.07.20
Повідомлень: 3241

2020-04-18 01:01  
Торент оновлено. Виправлено доріжку української озвучки.
max factor 
Частий відвідувач


З нами з: 08.01.19
Востаннє: 22.06.20
Повідомлень: 42

2020-04-18 13:21  
Дуже дякую від мене і усіх інших за виправлену доріжку. 10\10 автору, моє поважання.
Ваш часовий пояс: GMT + 2 Години

Нова тема   Відповісти