Земля до початку часів 4. Подорож крізь імлу / The Land Before Time IV. Journey Through the Mists (1996) 1080p 2xUkr/Eng | sub Eng

Нові коментарі

Нова тема   Відповісти
Автор Повідомлення
sergiyko.5 
Забанено
Забанено


З нами з: 25.02.16
Востаннє: 29.10.20
Повідомлень: 3648

2020-04-12 16:32  
Всі одноіменні релізи на трекері

Земля до початку часів 4. Подорож крізь імлу / The Land Before Time IV. Journey Through the Mists (1996) 1080p 2xUkr/Eng | sub Eng


Земля до початку часів 4. Подорож крізь імлу / The Land Before Time IV. Journey Through the Mists (1996) 1080p 2xUkr/Eng | sub Eng

Жанр: мультфільм, пригодницький, сімейний
Країна: США
Кінокомпанія: Universal Cartoon Studios
Режисер: Рой Ален Сміт

Сюжет:
На мешканців Великої Долини чекають новини! Зграя Довгошиїх розповіла, що погода за межами долини зіпсувалася: далека область, що колись іменувалася Сухою Землею, тепер перетворилася на Землю Туманів. Там стали з'являтися дивні, невідомі істоти; і кажуть, що навідуватись у дощові місця - дуже небезпечна справа.
Втім, ніхто з безтурботних мешканців Великої Долини не пішов би туди, якби не виникла необхідність: дідусь бронтозаврика Літлфута захворів. Допомогти йому можуть тільки пелюстки золотистої Нічної Квітки, яка росте лише на Землі Туманів! Тепер потрібно споряджати рятувальну експедицію за ліками для дідуся. Пригоди починаються: наші чарівні малюки вирушають у небезпечну подорож до Землі Туманів за Нічною Квіткою!




Тривалість: 01:13:55
Якість:

Відео: кодек: розмір кадру: 1920 х 1080 бітрейт: 12000 кб/с
Аудіо # 1: мова: українська переклад: багатоголосий закадровий кодек: 2.0 бітрейт: 192 кб/с
Озвучення:
Аудіо # 2: мова: українська переклад: багатоголосий закадровий кодек: 2.0 бітрейт: 192 кб/с
Озвучення:
Аудіо # 3: мова: англійська переклад: оригінал кодек: + 2.0 бітрейт: 224 кб/с
Субтитри: мова: англійська тип: програмні (м'які) формат: *.srt
Про файл:
General
Unique ID : 312941439404201220172583679057359942832 (0xEB6E5432B6895B7694387E69AE7634B0)
Complete name : D:\Documents\Torrents\Rizne\The Land Before Time 4.Journey Through the Mists.1996.1080p..
Format :
Format version : Version 4
File size : 6.59 GiB
Duration : 1 h 13 min
Overall bit rate mode : Variable
Overall bit rate : 12.8 Mb/s
Movie name : The Land Before Time 4 by sergiyko
Encoded date : UTC 2020-04-12 14:41:09
Writing application : v44.0.0 ('Domino') 64-bit
Writing library : libebml v1.3.10 + v1.5.2

Video
ID : 1
Format : AVC
Format/Info : Advanced Video Codec
Format profile : [email protected]
Format settings : CABAC / 4 Ref Frames
Format settings, CABAC : Yes
Format settings, Reference : 4 frames
Codec ID : V_MPEG4/ISO/AVC
Duration : 1 h 13 min
Bit rate mode : Variable
Bit rate : 12.1 Mb/s
Maximum bit rate : 15.0 Mb/s
Width : 1 920 pixels
Height : 1 080 pixels
Display aspect ratio : 16:9
Frame rate mode : Constant
Frame rate : 23.976 (24000/1001) FPS
Color space : YUV
Chroma subsampling : 4:2:0
Bit depth : 8 bits
Scan type : Progressive
Bits/(Pixel*Frame) : 0.244
Stream size : 6.27 GiB (95%)
Title : The Land Before Time 4
Language : English
Default : Yes
Forced : No
Color range : Limited
Color primaries : BT.709
Transfer characteristics : BT.709
Matrix coefficients : BT.709

Audio #1
ID : 2
Format : AC-3
Format/Info : Audio Coding 3
Commercial name : Dolby Digital
Codec ID : A_AC3
Duration : 1 h 13 min
Bit rate mode : Constant
Bit rate : 192 kb/s
Channel(s) : 2 channels
Channel layout : L R
Sampling rate : 48.0 kHz
Frame rate : 31.250 FPS (1536 SPF)
Compression mode : Lossy
Stream size : 102 MiB (2%)
Title : MOV | К1
Language : Ukrainian
Service kind : Complete Main
Default : Yes
Forced : Yes

Audio #2
ID : 3
Format : AC-3
Format/Info : Audio Coding 3
Commercial name : Dolby Digital
Codec ID : A_AC3
Duration : 1 h 13 min
Bit rate mode : Constant
Bit rate : 192 kb/s
Channel(s) : 2 channels
Channel layout : L R
Sampling rate : 48.0 kHz
Frame rate : 31.250 FPS (1536 SPF)
Compression mode : Lossy
Stream size : 102 MiB (2%)
Title : MOV | Новий Канал
Language : Ukrainian
Service kind : Complete Main
Default : No
Forced : No

Audio #3
ID : 4
Format : E-AC-3
Format/Info : Enhanced AC-3
Commercial name : Dolby Digital Plus
Codec ID : A_EAC3
Duration : 1 h 13 min
Bit rate mode : Constant
Bit rate : 224 kb/s
Channel(s) : 2 channels
Channel layout : L R
Sampling rate : 48.0 kHz
Frame rate : 31.250 FPS (1536 SPF)
Compression mode : Lossy
Delay relative to video : 21 ms
Stream size : 118 MiB (2%)
Title : Original
Language : English
Service kind : Complete Main
Default : No
Forced : No

Text
ID : 5
Format : UTF-8
Codec ID : S_TEXT/UTF8
Codec ID/Info : UTF-8 Plain Text
Duration : 1 h 9 min
Bit rate : 55 b/s
Count of elements : 1193
Stream size : 28.4 KiB (0%)
Language : English
Default : No
Forced : No
Скріншоти:


Зведення: sergiyko


Срібний реліз (на рейтинг впливає 50% завантаженого)
 Трекер:    Зареєстрований   

Завантажити / скачати мультфільм українською



відео для новачків



 Зареєстрований:   2020-04-12 16:57
 Розмір:   6.59 GB 
 Оцінка мультфільму:   10/10 (Голосів: 3)
   
max factor 
Частий відвідувач


З нами з: 08.01.19
Востаннє: 01.02.21
Повідомлень: 42

2020-04-12 19:23  
Величезний респект автору Wink (1). Від усіх включаючи мене хто чекав цей мультфільм Wink (1) Happy.
Ваш часовий пояс: GMT + 2 Години

Нова тема   Відповісти