Бандити / Bandits (2001) 5xUkr/Eng | Sub Ukr/Eng

Нові коментарі

Нова тема   Відповісти
Автор Повідомлення
21jumpstreet 
VIP


З нами з: 03.07.12
Востаннє: 05.07.20
Повідомлень: 1091

2020-04-12 17:07  
Бандити / Bandits (2001) 5xUkr/Eng | Sub Ukr/Eng

Бандити / Bandits (2001) 5xUkr/Eng | Sub Ukr/Eng


Жанр: комедія, кримінальний, драма
Країна: США



Кінокомпанія: Metro-Goldwyn-Mayer (MGM), Hyde Park Entertainment, Empire Pictures
Режисер: Баррі Левінсон / Barry Levinson
Актори: Брюс Вілліс / Bruce Willis, Біллі Боб Торнтон / Billy Bob Thornton, Кейт Бланшет / Cate Blanchett, Трой Ґеріті / Troy Garity, Браян Ф. О’Бірн / Brian F. O'Byrne, Стейсі Тревіс / Stacey Travis, Дженуарі Джонс / January Jones та інші

Сюжет:
Чемний Джо і його партнер-іпохондрик Тері втекли із в'язниці. Утікачі грабують банки, щоб зібрати гроші для свого "законного" життя на півдні кордону США. Вони залишають після себе хаос, розбиті машини й т.д. і т.п. - коротше те, що обожнює публіка. Їхні плани порушуються тоді, коли вони зненацька закохуються в Кейт заручницю, яку вони викрали під час останнього пограбування. Разом Джо і Тері - найбільш щасливі грабіжники банків в Американській історії, але з появою Кейт, схоже, усе стає навпаки...


Тривалість: 02:03:00
Якість:
Відео:
кодек:
розмір кадру: 720 х 304
бітрейт: 1754 кб/с

Аудіо # 1:
мова: українська
переклад: багатоголосий закадровий
кодек: 2.0
бітрейт: 192 кб/с
ролі озвучили: Михайло Жонін, Олег Лепенець, Людмила Ардельян, Анатолій Зіновенко, Олесь Гімбаржевський та інші

Аудіо # 2:
мова: українська
переклад: багатоголосий закадровий
кодек: 2.0
бітрейт: 192 кб/с
ролі озвучили: Олесь Гімбаржевський, Анатолій Зіновенко, Ярослав Чорненький та Лідія Муращенко

Аудіо # 3:
мова: українська
переклад: багатоголосий закадровий
кодек: 2.0
бітрейт: 192 кб/с
Ролі озвучили: Володимир Терещук, Євген Пашин, Андрій Соболєв та один жіночий

Аудіо # 4:
мова: українська
переклад: багатоголосий закадровий ,
кодек: 2.0
бітрейт: 192 кб/с
ролі озвучили: Олександр Завальський, Дмитро Вікулов, один чоловічий та двоє жіночих

Аудіо # 5:
мова: українська
переклад: багатоголосий закадровий
кодек: 2.0
бітрейт: 192 кб/с
ролі озвучили: Олександр Завальський, Олесь Гімбаржевський та Лідія Муращенко
примітка: доріжка #5 витягнуто з центрального каналу 5.1, доріжка #4 не перекладено фінальні титри. Решта з озвученими титрами від сіне плюс.

Аудіо # 6: (окремо)
мова: англійська
переклад: оригінал
кодек: 5.1
бітрейт: 384 кб/с

Субтитри #1:
мова: українська | Hdclub
тип: програмні (м'які)
формат: *.srt

Субтитри #2:
мова: англійська (Full)
тип: програмні (м'які)
формат: *.srt
Скріншоти




Info
C:\Bandits (2001) [5xUkr] [Hurtom]\Bandits (2001) [5xUkr] [Hurtom].avi
General
Complete name : C:\Bandits (2001) [5xUkr] [Hurtom]\Bandits (2001) [5xUkr] [Hurtom].avi
Format : AVI
Format/Info : Audio Video Interleave
Format profile : OpenDML
File size : 2.36 GiB
Duration : 2 h 3 min
Overall bit rate : 2 749 kb/s
Director : sociolog_melvas
Writing application : VirtualDubMod 1.5.10.2 (build 2540/release)
Writing library : VirtualDubMod build 2540/release
Copyright : HQCLUB
Comment : 25.03.2016
Video #0
ID : 0
Format : MPEG-4 Visual
Format profile : Advanced [email protected]
Format settings, BVOP : 1
Format settings, QPel : No
Format settings, GMC : No warppoints
Format settings, Matrix : Custom
Codec ID :
Codec ID/Hint :
Duration : 2 h 3 min
Bit rate : 1 754 kb/s
Width : 720 pixels
Height : 304 pixels
Display aspect ratio : 2.35:1
Frame rate : 23.976 (24000/1001) FPS
Color space : YUV
Chroma subsampling : 4:2:0
Bit depth : 8 bits
Scan type : Progressive
Compression mode : Lossy
Bits/(Pixel*Frame) : 0.334
Stream size : 1.51 GiB (64%)
Writing library : 65
Audio #1
ID : 1
Format : AC-3
Format/Info : Audio Coding 3
Mode extension : CM (complete main)
Format settings, Endianness : Big
Codec ID : 2000
Duration : 2 h 3 min
Bit rate mode : Constant
Bit rate : 192 kb/s
Channel(s) : 2 channels
Channel positions : Front: L R
Sampling rate : 48.0 kHz
Frame rate : 31.250 FPS (1536 spf)
Compression mode : Lossy
Stream size : 169 MiB (7%)
Alignment : Split accross interleaves
Interleave, duration : 42 ms (1.00 video frame)
Interleave, preload duration : 500 ms
Audio #2
ID : 2
Format : AC-3
Format/Info : Audio Coding 3
Mode extension : CM (complete main)
Format settings, Endianness : Big
Codec ID : 2000
Duration : 2 h 3 min
Bit rate mode : Constant
Bit rate : 192 kb/s
Channel(s) : 2 channels
Channel positions : Front: L R
Sampling rate : 48.0 kHz
Frame rate : 31.250 FPS (1536 spf)
Compression mode : Lossy
Stream size : 169 MiB (7%)
Alignment : Split accross interleaves
Interleave, duration : 42 ms (1.00 video frame)
Interleave, preload duration : 500 ms
Audio #3
ID : 3
Format : AC-3
Format/Info : Audio Coding 3
Mode extension : CM (complete main)
Format settings, Endianness : Big
Codec ID : 2000
Duration : 2 h 3 min
Bit rate mode : Constant
Bit rate : 192 kb/s
Channel(s) : 2 channels
Channel positions : Front: L R
Sampling rate : 48.0 kHz
Frame rate : 31.250 FPS (1536 spf)
Compression mode : Lossy
Stream size : 169 MiB (7%)
Alignment : Split accross interleaves
Interleave, duration : 42 ms (1.00 video frame)
Interleave, preload duration : 500 ms
Audio #4
ID : 4
Format : AC-3
Format/Info : Audio Coding 3
Mode extension : CM (complete main)
Format settings, Endianness : Big
Codec ID : 2000
Duration : 2 h 3 min
Bit rate mode : Constant
Bit rate : 192 kb/s
Channel(s) : 2 channels
Channel positions : Front: L R
Sampling rate : 48.0 kHz
Frame rate : 31.250 FPS (1536 spf)
Compression mode : Lossy
Stream size : 169 MiB (7%)
Alignment : Split accross interleaves
Interleave, duration : 42 ms (1.00 video frame)
Interleave, preload duration : 500 ms
Audio #5
ID : 5
Format : AC-3
Format/Info : Audio Coding 3
Mode extension : CM (complete main)
Format settings, Endianness : Big
Codec ID : 2000
Duration : 2 h 3 min
Bit rate mode : Constant
Bit rate : 192 kb/s
Channel(s) : 2 channels
Channel positions : Front: L R
Sampling rate : 48.0 kHz
Frame rate : 31.250 FPS (1536 spf)
Compression mode : Lossy
Stream size : 169 MiB (7%)
Alignment : Split accross interleaves
Interleave, duration : 42 ms (1.00 video frame)
Interleave, preload duration : 500 ms

Величезні та найщиріші подяки:

Запис звуку з ТБ: Bohdan237, Sando7, Karvai0, ratbol, xslim

Зведення:
kryk-v.ya., igor911, Arsenfpu
Українські субтитри: взято з hdclub, редагування і таймінг igor911
Джерело: &

Релізи з 5-тьма доріжками тут


 Трекер:    Зареєстрований   

Завантажити / скачати фільм українською



відео для новачків



 Зареєстрований:   2020-04-13 09:05
 Розмір:   2.69 GB 
 Оцінка фільму:   7.6/10 (Голосів: 5)
   
Інші релізи
   Бандити / Bandits (2001) 1080p H.265 4xUkr/Eng | Sub Ukr/Eng ukr_anonymous  2 / 0   4.04 GB   2018-08-02 17:57 
   Бандити / Bandits (2001) 1080p 4xUkr/Eng | Sub Ukr/Eng drop_plz  2 / 0   8.03 GB   2018-08-02 16:43 
   Бандити / Bandits (2001) AVC 4xUkr/Eng | Sub Ukr/Eng Arsenfpu  3 / 0   2.79 GB   2018-02-11 03:59 
   Бандити / Bandits (2001) 2xUkr/Eng | Sub Ukr/Eng igor911  3 / 0   2.35 GB   2016-04-08 17:52 
   Бандити / Bandits (2001) 720p 2xUkr/Eng | Sub Ukr/Multi igor911  2 / 0   6.3 GB   2016-04-08 16:45 
   Бандити / Bandits (2001) AVC Jatx_11  1 / 0   2.29 GB   2011-09-22 21:56 
bot 
робот


З нами з: 30.09.07
Востаннє: 26.05.05
Повідомлень: 24971

2020-04-12 22:38  
Тему перенесено з Анонси релізів до форуму Фільми


21jumpstreet

21jumpstreet 
VIP


З нами з: 03.07.12
Востаннє: 05.07.20
Повідомлень: 1091

2020-04-13 09:06  
ФАЙЛ БЕЗ ЗМІН! ВИЙШЛО ВИПАДКОВО! ПЕРЕПРОШУЮ ЗА НЕЗРУЧНОСТІ!
Ваш часовий пояс: GMT + 2 Години

Нова тема   Відповісти