Еволюція Борна / Спадок Борна / The Bourne Legacy (2012) 2xUkr/Eng | Sub Ukr/Eng

Нові коментарі

Нова тема   Відповісти
Автор Повідомлення
21jumpstreet 
VIP


З нами з: 03.07.12
Востаннє: 06.07.20
Повідомлень: 1092

2020-04-12 10:36  
Еволюція Борна / Спадок Борна / The Bourne Legacy (2012) 2xUkr/Eng | Sub Ukr/Eng

Еволюція Борна / Спадок Борна / The Bourne Legacy (2012) 2xUkr/Eng | Sub Ukr/Eng


Жанр: бойовик, трилер
Країна: США



Кінокомпанія: Universal Pictures
Режисер: Тоні Гілрой / Tony Gilroy
Актори: Джеремі Реннер / Jeremy Renner, Рейчел Вайс / Rachel Weicz, Едвард Нортон / Edward Norton, Стейсі Кіч / Stacy Keach, Оскар Айзек / Oscar Isaac та інші

Сюжет:
Метт Деймон відпочиває. На заміну прийшов не найгірший варіант Джеремі Реннер. Його персонаж Аарон Кросс губить таблетки, які підтримують його здоров'я та витривалість. Його завдання знайти таблетки, повбивати ворогів, покохати і вижити.


Тривалість: 02:15:00
Якість:
Відео:
кодек:
розмір кадру: 720x304
бітрейт: 2162 кб/с

Аудіо # 1:
мова: українська
переклад: багатоголосий закадровий | звук записано з показу на 1+1 11.04.2020
кодек: 2.0
бітрейт: 192 кб/с
Інформація про озвучення:
Ролі озвучували: Дмитро Терещук, Євген Пашин, Юрій Гребельник та один жіночий
Аудіо # 2:
мова: українська
переклад: багатоголосий закадровий
кодек: 2.0
бітрейт: 192 кб/с
Інформація про озвучення:
Аудіо # 3: (окремо)
мова: англійська
переклад: оригінал
кодек: 5.1
бітрейт: 448 кб/с

Запис з телеканалу:
,

Субтитри #1:
мова: українська | Netflix
тип: програмні (м'які)
формат: *.srt

Субтитри #2:
мова: англійська (Full)
тип: програмні (м'які)
формат: *.srt
Скріншоти





Info
Код:
C:\Bourne Legacy (2012) [Hurtom]\The Bourne Legacy (2012) 2xUkr.avi
   General
      Complete name : C:\Bourne Legacy (2012) [Hurtom]\The Bourne Legacy (2012) 2xUkr.avi
      Format : AVI
      Format/Info : Audio Video Interleave
      Format profile : OpenDML
      File size : 2.42 GiB
      Duration : 2 h 15 min
      Overall bit rate : 2 563 kb/s
      Writing application : VirtualDubMod 1.5.10.2 (build 2540/release)
      Writing library : VirtualDubMod build 2540/release
   Video #0
      ID : 0
      Format : MPEG-4 Visual
      Format profile : Advanced [email protected]
      Format settings, BVOP : 2
      Format settings, QPel : No
      Format settings, GMC : No warppoints
      Format settings, Matrix : Custom
      Codec ID :
      Codec ID/Hint :
      Duration : 2 h 15 min
      Bit rate : 2 162 kb/s
      Width : 720 pixels
      Height : 304 pixels
      Display aspect ratio : 2.35:1
      Frame rate : 23.976 (23976/1000) FPS
      Color space : YUV
      Chroma subsampling : 4:2:0
      Bit depth : 8 bits
      Scan type : Progressive
      Compression mode : Lossy
      Bits/(Pixel*Frame) : 0.412
      Stream size : 2.04 GiB (84%)
      Writing library : 73
   Audio #1
      ID : 1
      Format : AC-3
      Format/Info : Audio Coding 3
      Mode extension : CM (complete main)
      Format settings, Endianness : Big
      Codec ID : 2000
      Duration : 2 h 15 min
      Bit rate mode : Constant
      Bit rate : 192 kb/s
      Channel(s) : 2 channels
      Channel positions : Front: L R
      Sampling rate : 48.0 kHz
      Frame rate : 31.250 FPS (1536 spf)
      Compression mode : Lossy
      Stream size : 185 MiB (7%)
      Alignment : Split accross interleaves
      Interleave, duration : 42  ms (1.00 video frame)
      Interleave, preload duration : 500  ms
   Audio #2
      ID : 2
      Format : AC-3
      Format/Info : Audio Coding 3
      Mode extension : CM (complete main)
      Format settings, Endianness : Big
      Codec ID : 2000
      Duration : 2 h 15 min
      Bit rate mode : Constant
      Bit rate : 192 kb/s
      Channel(s) : 2 channels
      Channel positions : Front: L R
      Sampling rate : 48.0 kHz
      Frame rate : 31.250 FPS (1536 spf)
      Compression mode : Lossy
      Stream size : 185 MiB (7%)
      Alignment : Split accross interleaves
      Interleave, duration : 42  ms (1.00 video frame)
      Interleave, preload duration : 500  ms

Величезні та найщиріші подяки:

Запис звуку з ТБ: tilda4334 та slavik_v_z
Зведення: kryk-v.ya., Gelios
Українські субтитри: leicheman


Джерело:


 Трекер:    Зареєстрований   

Завантажити / скачати фільм українською



відео для новачків



 Зареєстрований:   2020-04-13 10:43
 Розмір:   2.84 GB 
 Оцінка фільму:   8.8/10 (Голосів: 8)
   
bot 
робот


З нами з: 30.09.07
Востаннє: 26.05.05
Повідомлень: 24984

2020-04-12 10:36  
Тему перенесено з Фільми до форуму Анонси релізів


21jumpstreet

maxwell_kennedy 
Новенький


З нами з: 20.09.19
Востаннє: 26.06.20
Повідомлень: 5

2020-04-12 12:26  
А можна доріжки окремо, так як буду робити збірку з Open Matte відеорядом, правда з російською локалізацією. На даний момент це єдиний варіант. І до речі, який формат відео був на трансляції - 2.35: чи 16:9?
bot 
робот


З нами з: 30.09.07
Востаннє: 26.05.05
Повідомлень: 24984

2020-04-12 13:07  
Тему перенесено з Анонси релізів до форуму Фільми


21jumpstreet

igor911 
Модератор відео


З нами з: 18.01.08
Востаннє: 06.07.20
Повідомлень: 14857

2020-04-12 13:16  
В назвах файлів субтитрів виправте подвійне ".srt.srt"

Додано через 3 хвилини 9 секунд:

також треба вказати джерело укр.сабів

kryk-v.ya. 
Попереджень: 1
Попереджень: 1 


З нами з: 14.02.14
Востаннє: 07.07.20
Повідомлень: 2104

2020-04-12 13:22  
maxwell_kennedy написано:
правда з російською локалізацією.


21jumpstreet 
VIP


З нами з: 03.07.12
Востаннє: 06.07.20
Повідомлень: 1092

2020-04-12 13:25  
igor911
ТОРЕНТ ФАЙЛ ОНОВЛЕНО! ПЕРЕЙМЕНОВАНО ФАЙЛИ САБІВ І АУДІО!

ТОРЕНТ ФАЙЛ ЛИШИВСЯ БЕЗ ЗМІН! ПРИЧИНА: НИЗЬКА АКТИВНІСТЬ СКАЧУВАННЯ ТА РОЗДАЧІ! ПЕРЕПРОШУЮ ЗА НЕЗРУЧНОСТІ!

Ваш часовий пояс: GMT + 2 Години

Нова тема   Відповісти