Енні / Annie (1982) 720p Eng | Sub Ukr/Eng

Нові коментарі

Нова тема   Відповісти
Автор Повідомлення
Anonymous 







2020-04-11 17:41  
Енні / Annie (1982) 720p Eng | Sub Ukr/Eng

Енні / Annie (1982) 720p Eng | Sub Ukr/Eng


Жанр: комедія, драма, сімейний, мюзикл
Країна: США



Кінокомпанія: Columbia Pictures, Rastar Pictures
Режисер: Джон Г'юстон
Актори: Айлін Квінн, Керол Бернетт, Альберт Фінні, Бернадетт Пітерс, Тім Каррі.

Сюжет:
Енні маленька десятирічна сирота і живе у притулку яким керує п'яничка і зла міс Хенніган. Одного разу у притулок навідується помічниця мільярдера, щоб узяти дитину на тиждень для покращення його іміджу, але дівчина так подобається усім, що тепер її хочу удочерити, але не усе так просто бо дівчинка чекає на своїх справжніх батьків які обіцяли повернутися за нею і тут починаються справжні пригоди і кримінал.


Тривалість: 02:07:24
Якість:
Відео:
кодек:
розмір кадру: 1280 х 534
бітрейт: 8329 кб/с

Аудіо:
мова: англійська
переклад: оригінал
кодек: 5.1
бітрейт: 640 кб/с

Субтитри:
мова: українська
тип: програмні (м'які)
формат: *.srt

Субтитри:
мова: англійська
тип: програмні (м'які)
формат: *.srt
Info
Video
ID : 1
Format : AVC
Format/Info : Advanced Video Codec
Format profile : [email protected]
Format settings : CABAC / 11 Ref Frames
Format settings, CABAC : Yes
Format settings, Reference : 11 frames
Codec ID : V_MPEG4/ISO/AVC
Duration : 2 h 7 min
Bit rate : 8 329 kb/s
Width : 1 280 pixels
Height : 534 pixels
Display aspect ratio : 2.40:1
Frame rate mode : Constant
Frame rate : 23.976 (24000/1001) FPS
Color space : YUV
Chroma subsampling : 4:2:0
Bit depth : 8 bits
Scan type : Progressive
Bits/(Pixel*Frame) : 0.508
Stream size : 7.41 GiB (93%)
Writing library : core 128 r2216 198a7ea
Encoding settings : cabac=1 / ref=11 / deblock=1:-3:-3 / analyse=0x3:0x113 / me=tesa / subme=9 / psy=1 / psy_rd=1.20:0.00 / mixed_ref=1 / me_range=16 / chroma_me=1 / trellis=2 / 8x8dct=1 / cqm=0 / deadzone=21,11 / fast_pskip=0 / chroma_qp_offset=-2 / threads=12 / lookahead_threads=2 / sliced_threads=0 / nr=0 / decimate=0 / interlaced=0 / bluray_compat=0 / constrained_intra=0 / bframes=7 / b_pyramid=2 / b_adapt=2 / b_bias=0 / direct=3 / weightb=1 / open_gop=0 / weightp=2 / keyint=250 / keyint_min=23 / scenecut=40 / intra_refresh=0 / rc=crf / mbtree=0 / crf=16.0 / qcomp=0.60 / qpmin=0 / qpmax=69 / qpstep=4 / ip_ratio=1.40 / pb_ratio=1.30 / aq=1:0.55
Language : English
Default : Yes
Forced : No
Color range : Limited
Matrix coefficients : BT.709

Audio
ID : 2
Format : AC-3
Format/Info : Audio Coding 3
Commercial name : Dolby Digital
Codec ID : A_AC3
Duration : 2 h 7 min
Bit rate mode : Constant
Bit rate : 640 kb/s
Channel(s) : 6 channels
Channel layout : L R C LFE Ls Rs
Sampling rate : 48.0 kHz
Frame rate : 31.250 FPS (1536 SPF)
Compression mode : Lossy
Stream size : 583 MiB (7%)
Language : English
Service kind : Complete Main
Default : Yes
Forced : No

Text #1
ID : 3
Format : UTF-8
Codec ID : S_TEXT/UTF8
Codec ID/Info : UTF-8 Plain Text
Duration : 2 h 5 min
Bit rate : 85 b/s
Count of elements : 1764
Stream size : 78.4 KiB (0%)
Title : Netflix
Language : Ukrainian
Default : Yes
Forced : No

Text #2
ID : 4
Format : UTF-8
Codec ID : S_TEXT/UTF8
Codec ID/Info : UTF-8 Plain Text
Duration : 2 h 5 min
Bit rate : 52 b/s
Count of elements : 1338
Stream size : 48.1 KiB (0%)
Language : English
Default : No
Forced : No

Menu
00:00:00.000 : en:00:00:00.000
00:06:14.958 : en:00:06:14.958
00:14:51.057 : en:00:14:51.057
00:20:08.249 : en:00:20:08.249
00:32:31.992 : en:00:32:31.992
00:37:06.224 : en:00:37:06.224
00:45:42.949 : en:00:45:42.949
00:51:29.753 : en:00:51:29.753
01:05:31.177 : en:01:05:31.177
01:09:42.929 : en:01:09:42.929
01:15:38.117 : en:01:15:38.117
01:24:46.456 : en:01:24:46.456
01:33:04.746 : en:01:33:04.746
01:42:24.472 : en:01:42:24.472
01:54:28.904 : en:01:54:28.904
01:59:56.773 : en:01:59:56.773
Скріншоти













Джерело:
Особиста оцінка: 10 - без зайвих вагань рекомендую всім!


Срібний реліз (на рейтинг впливає 50% завантаженого)
 Трекер:    Зареєстрований   

Завантажити / скачати фільм українською



відео для новачків



 Зареєстрований:   2020-04-11 17:41
 Розмір:   7.98 GB 
 Оцінка фільму:   10/10 (Голосів: 2)
   
Ваш часовий пояс: GMT + 2 Години

Нова тема   Відповісти