Полдарк / Poldark (Сезон 3) (2017) 1080p Ukr/Eng | Sub Eng

Нові коментарі

Нова тема   Відповісти
Останній раз роздавалося sergiyko.5 (2020-11-26)
Автор Повідомлення
sergiyko.5 
Забанено
Забанено


З нами з: 25.02.16
Востаннє: 29.10.20
Повідомлень: 3650

2020-04-11 16:33  
Всі одноіменні релізи на трекері

Полдарк / Poldark (Сезон 3) (2017) 1080p Ukr/Eng | Sub Eng


Полдарк / Poldark (Сезон 3) (2017) 1080p Ukr/Eng | Sub Eng

Жанр: драма, мелодрама, історичний
Країна: Велика Британія
Кінокомпанія: Mammoth Screen
Режисер: Джосс Егнью, Селлі Апрахаміан, Едвард Базалгетт
Актори: Ейдан Тернер, Елінор Томлінсон, Джек Фартінг, Беті Едні, Трістан Старрок, Люк Норріс, Хейда Рід, Габріелла Уайлд, Піп Торренс, Керолайн Блекістон

Сюжет:
Сюжет серіалу заснований на історії Росса Полдарка, який повертається після війни додому. Тут він дізнається, що батько помер, а на фермі заправляють п'яниці слуги. Крім цього, наречена головного героя побралася з його кузеном, так як думала, що Полдарк помер.




Тривалість: 1 серія: 59:00 (цілком серій: 9 з 9)
Якість:

Відео: кодек: розмір кадру: 1920x1080 бітрейт: 10000 кб/с
Аудіо # 1: мова: українська переклад: двоголосий закадровий кодек: 2.0 бітрейт: 192 кб/с
Озвучення: (Михайло Войчук і Ольга Гриськова)
Аудіо # 2: мова: англійська переклад: оригінал кодек: 2.0 бітрейт: 640 кб/с
Субтитри: мова: англійська тип: програмні (м'які) формат: *.srt
Перелік серій
епізод 01
епізод 02
епізод 03
епізод 04
епізод 05
епізод 06
епізод 07
епізод 08
епізод 09
Про файл:
General
Unique ID : 98463794906129400217584127867672015321 (0x4A136FE6192BCDAA41212FB3D6C331D9)
Complete name : D:\Documents\Torrents\Rizne\Poldark S03 1080p \Poldark.S03E01.2017.1080p..
Format :
Format version : Version 4
File size : 4.45 GiB
Duration : 58 min 50 s
Overall bit rate : 10.8 Mb/s
Movie name : Poldark S03 1080p by sergiyko
Encoded date : UTC 2020-04-11 13:10:35
Writing application : v44.0.0 ('Domino') 64-bit
Writing library : libebml v1.3.10 + v1.5.2

Video
ID : 1
Format : AVC
Format/Info : Advanced Video Codec
Format profile : [email protected]
Format settings : CABAC / 4 Ref Frames
Format settings, CABAC : Yes
Format settings, Reference : 4 frames
Codec ID : V_MPEG4/ISO/AVC
Duration : 58 min 50 s
Bit rate : 9 994 kb/s
Width : 1 920 pixels
Height : 1 080 pixels
Display aspect ratio : 16:9
Frame rate mode : Constant
Frame rate : 25.000 FPS
Color space : YUV
Chroma subsampling : 4:2:0
Bit depth : 8 bits
Scan type : Progressive
Bits/(Pixel*Frame) : 0.193
Stream size : 4.11 GiB (92%)
Writing library : core 152 r2851 ba24899
Encoding settings : cabac=1 / ref=4 / deblock=1:-3:-3 / analyse=0x3:0x113 / me=umh / subme=8 / psy=1 / psy_rd=1.00:0.00 / mixed_ref=1 / me_range=16 / chroma_me=1 / trellis=1 / 8x8dct=1 / cqm=0 / deadzone=21,11 / fast_pskip=1 / chroma_qp_offset=-2 / threads=6 / lookahead_threads=1 / sliced_threads=0 / nr=0 / decimate=1 / interlaced=0 / bluray_compat=0 / constrained_intra=0 / bframes=3 / b_pyramid=2 / b_adapt=2 / b_bias=0 / direct=3 / weightb=1 / open_gop=0 / weightp=2 / keyint=250 / keyint_min=25 / scenecut=40 / intra_refresh=0 / rc_lookahead=50 / rc=2pass / mbtree=1 / bitrate=9994 / ratetol=1.0 / qcomp=0.60 / qpmin=0 / qpmax=69 / qpstep=4 / cplxblur=20.0 / qblur=0.5 / ip_ratio=1.40 / aq=3:0.80
Language : English
Default : Yes
Forced : No

Audio #1
ID : 2
Format : AC-3
Format/Info : Audio Coding 3
Commercial name : Dolby Digital
Codec ID : A_AC3
Duration : 58 min 50 s
Bit rate mode : Constant
Bit rate : 192 kb/s
Channel(s) : 2 channels
Channel layout : L R
Sampling rate : 48.0 kHz
Frame rate : 31.250 FPS (1536 SPF)
Compression mode : Lossy
Stream size : 80.8 MiB (2%)
Title : MOV 2ch
Language : Ukrainian
Service kind : Complete Main
Default : Yes
Forced : Yes

Audio #2
ID : 3
Format : AC-3
Format/Info : Audio Coding 3
Commercial name : Dolby Digital
Codec ID : A_AC3
Duration : 58 min 50 s
Bit rate mode : Constant
Bit rate : 640 kb/s
Channel(s) : 2 channels
Channel layout : L R
Sampling rate : 48.0 kHz
Frame rate : 31.250 FPS (1536 SPF)
Compression mode : Lossy
Stream size : 269 MiB (6%)
Title : Original
Language : English
Service kind : Complete Main
Default : No
Forced : No

Text
ID : 4
Format : VobSub
Muxing mode : zlib
Codec ID : S_VOBSUB
Codec ID/Info : Picture based subtitle format used on DVDs
Duration : 57 min 59 s
Bit rate : 9 469 b/s
Count of elements : 618
Stream size : 3.93 MiB (0%)
Language : English
Default : No
Forced : No

Menu
00:00:00.000 : en:00:00:00.000
00:09:08.560 : en:00:09:08.560
00:18:53.400 : en:00:18:53.400
00:28:23.800 : en:00:28:23.800
00:34:59.920 : en:00:34:59.920
00:50:00.480 : en:00:50:00.480
Скріншоти:


Запис звуку/зведення: sergiyko


Срібний реліз (на рейтинг впливає 50% завантаженого)
 Трекер:    Зареєстрований   

Завантажити / скачати серіал українською



відео для новачків



 Зареєстрований:   2020-04-11 16:33
 Розмір:   40.04 GB 
 Оцінка серіалу:   10/10 (Голосів: 3)
   
romko_l 
Новенький


З нами з: 13.02.12
Востаннє: 05.12.20
Повідомлень: 1

2020-04-23 18:09  
доброго дня
коли буде наступний сезон?

sergiyko.5 
Забанено
Забанено


З нами з: 25.02.16
Востаннє: 29.10.20
Повідомлень: 3650

2020-04-23 23:25  
romko_l
Залишилось зробити три серії і всі 5 сезонів будуть готові. Сьогодні запишу з трансляції останню і потрібно знайти повтор 7 серії 4 сезону. Тоді і створю релізи.

don pedro 
Попереджень: 1
Попереджень: 1 


З нами з: 29.06.11
Востаннє: 05.12.20
Повідомлень: 18262

2020-04-23 23:27  
А буде менший розмір?
sergiyko.5 
Забанено
Забанено


З нами з: 25.02.16
Востаннє: 29.10.20
Повідомлень: 3650

2020-04-23 23:30  
Ріпи зроблені, чекаю на звук.
don pedro 
Попереджень: 1
Попереджень: 1 


З нами з: 29.06.11
Востаннє: 05.12.20
Повідомлень: 18262

2020-04-23 23:41  
sergiyko.5
Дякую.

Cartwright 
VIP


З нами з: 23.03.13
Востаннє: 05.12.20
Повідомлень: 397

2020-05-11 17:33  
Ось вже переглянув третій сезон і досі не розумію, що хотіли донести автори цим серіалом. Бо якщо серйозно думати над сюжетом, то виходить повна маячня в результаті. У всіх персонажів показані адекватні любовні стосунки, окрім Роса та Демельзи. На їхньому прикладі нам демонструють, що є речі більші за любов, а саме родина. В той же час нам показують як ці ж Рос та Демельза допомагають своїм друзям у любовних справах пропагуючи ідею одруження виключно з любові (весь серіал присвячений тільки цьому - рандомним любовним історіям). Хоча тут виникає величезна іронія, бо Рос і Демельза одружилися не з любові, якщо згадувати перший сезон. Та і за три сезони мені досі важко повірити в їхні справжні почуття один до одного, хоча вони неодноразово зізнавалися один одному. Більше схоже на звичайне звикання один до одного. В той же час Рос взагалі не приховує того, що вже три сезони кохає Елізабет. Що знову суперечить фабулі серіалу про одне єдине кохання, отже виходить, що саме Елізабет і є тим єдиним коханням, а Демельза всього лиш дружина - найкращий друг. Пфф.

В цій ситуації шкода лише Елізабет та чоловіків, які западали на Демельзу, бо ними користуються сценаристи виключно в останніх серіях, щоб посилити бажання глядачів переглянути наступний сезон. З чоловіками ще гаразд, вони різні, тож там все виглядає доволі органічно, проте, на жаль, персонаж Елізабет на протязі кожного сезону то деградує, то знову еволюціонує (то з неї роблять негідницю, то знову показують її з гарного боку). Її тримають в серіалі виключно для ключових сцен з Росом.

P.S. Роса варто зробити султаном і життя в нього налагодиться, зможе мутити з Елізабет в парні дні, а з Дмельзою в непарні. І всі будуть задоволені.
P.P.S. Знову ж, яка свята жінка ця Демельза, в той час коли решта героїв, включаючи Роса, - негідники. Я б її канонізував.

Ваш часовий пояс: GMT + 2 Години

Нова тема   Відповісти