Погані хлопці назавжди / Bad Boys for Life (2020) UHD Remux 4K 2160p Ukr/Eng | Sub Ukr/Eng

Нові коментарі

Нова тема   Відповісти
Автор Повідомлення
Anonymous 







2020-04-11 01:43  
Погані хлопці назавжди / Bad Boys for Life (2020) UHD Remux 4K 2160p Ukr/Eng | Sub Ukr/Eng



Жанр: бойовик, комедія, кримінал, трилер
Країна: США, Мексика







Кінокомпанія: Sony Pictures, Columbia Pictures
Режисер: Аділь Ель Арбі, Білал Фалла
Актори: Вілл Сміт, Мартін Лоуренс, Ванесса Енн Хадженс, Александр Людвіг, Чарльз Мелтон, Паола Нуньєс, Кейт Дел Кастілло, Ніккі Джем, Джо Пантольяно

Сюжет:
Напарники по службі в поліції Маямі Майк Лоурі та Маркус Бернетт разом розкрили чимало справ і зловили не одного поганого хлопця. Але Маркус втомився, він уже хоче на пенсію або хоча би змінити місце роботи, вік уже не той. Чоловік вирішив, що буде приватним детективом, ця посада спокійніша, ніж постійна стрілянина. Майку ж дали нову команду молодих і зухвалих поліцейських, яких ще вчити та вчити... Але нудно йому не буде точно, адже його хоче вбити албанський найманець заради помсти за свого брата. Тільки одне могло змусити напарників об'єднатися знову – небезпека життів один одного. Це їх остання справа, заради якої хлопці повинні забути старі образи.


Тривалість: 02:03:58
Якість: UHD Remux 2160p

Відео:
кодек: H.265 (HEVC)
розмір кадру: 3840x2160
бітрейт: 47,8 Мб/с
бітова глибина: 10 біт
кольоровий простір: BT.2020 (HDR)

Аудіо # 1:
мова: українська
переклад: професійний дубльований
кодек: 5.1
бітрейт: 384 кб/с

Аудіо # 2:
мова: англійська
переклад: оригінал
кодек: 5.1
бітрейт: 640 кб/с

Аудіо # 3:
мова: англійська
переклад: оригінал
кодек: -HD MA 7.1
бітрейт: 5847 кб/с

Джерело озвучення:


Субтитри: (Forced, Full)
мова: українська
тип: програмні (м'які)
формат: *.srt

Субтитри: (Full)
мова: англійська
тип: програмні (м'які)
формат: *.srt
Info
Код:
General
Complete name                            : Bad Boys for Life (2020) UHD Remux 4K 2160p [Ukr, Eng] [Video_Hurtom].
Format                                   :
Format version                           : Version 4
File size                                : 47.4 GiB
Duration                                 : 2 h 3 min
Overall bit rate mode                    : Variable
Overall bit rate                         : 54.7 Mb/s
Movie name                               : Погані хлопці назавжди / Bad Boys for Life (2020)
Encoded date                             : UTC 2020-05-06 09:39:27
Writing application                      : v30.1.0 ('Forever And More') 64-bit
Writing library                          : libebml v1.3.6 + v1.4.9
Cover                                    : Yes
Attachments                              : cover.jpg

Video
ID                                       : 1
Format                                   : HEVC
Format/Info                              : High Efficiency Video Coding
Commercial name                          : HDR10
Format profile                           : Main [email protected]@High
Codec ID                                 : V_MPEGH/ISO/HEVC
Duration                                 : 2 h 3 min
Bit rate                                 : 47.8 Mb/s
Width                                    : 3 840 pixels
Height                                   : 2 160 pixels
Display aspect ratio                     : 16:9
Frame rate mode                          : Constant
Frame rate                               : 23.976 (24000/1001) FPS
Color space                              : YUV
Chroma subsampling                       : 4:2:0 (Type 2)
Bit depth                                : 10 bits
Bits/(Pixel*Frame)                       : 0.240
Stream size                              : 41.4 GiB (87%)
Language                                 : English
Default                                  : Yes
Forced                                   : No
Color range                              : Limited
Color primaries                          : BT.2020
Transfer characteristics                 : PQ
Matrix coefficients                      : BT.2020 non-constant
Mastering display color primaries        : Display P3
Mastering display luminance              : min: 0.0050 cd/m2, max: 4000 cd/m2
Maximum Content Light Level              : 4004 cd/m2
Maximum Frame-Average Light Level        : 695 cd/m2

Audio #1
ID                                       : 2
Format                                   : AC-3
Format/Info                              : Audio Coding 3
Commercial name                          : Dolby Digital
Codec ID                                 : A_AC3
Duration                                 : 2 h 3 min
Bit rate mode                            : Constant
Bit rate                                 : 384 kb/s
Channel(s)                               : 6 channels
Channel layout                           : L R C LFE Ls Rs
Sampling rate                            : 48.0 kHz
Frame rate                               : 31.250 FPS (1536 SPF)
Bit depth                                : 16 bits
Compression mode                         : Lossy
Stream size                              : 340 MiB (1%)
Title                                    : , 5.1, 384 Kbps
Language                                 : Ukrainian
Service kind                             : Complete Main
Default                                  : Yes
Forced                                   : No

Audio #2
ID                                       : 3
Format                                   : AC-3
Format/Info                              : Audio Coding 3
Commercial name                          : Dolby Digital
Codec ID                                 : A_AC3
Duration                                 : 2 h 3 min
Bit rate mode                            : Constant
Bit rate                                 : 640 kb/s
Channel(s)                               : 6 channels
Channel layout                           : L R C LFE Ls Rs
Sampling rate                            : 48.0 kHz
Frame rate                               : 31.250 FPS (1536 SPF)
Bit depth                                : 16 bits
Compression mode                         : Lossy
Stream size                              : 568 MiB (1%)
Title                                    : , 5.1, 640 Kbps
Language                                 : English
Service kind                             : Complete Main
Default                                  : No
Forced                                   : No

Audio #3
ID                                       : 4
Format                                   : XLL
Format/Info                              : Digital Theater Systems
Commercial name                          : -HD Master Audio
Codec ID                                 : A_DTS
Duration                                 : 2 h 3 min
Bit rate mode                            : Variable
Bit rate                                 : 5 847 kb/s
Channel(s)                               : 8 channels
Channel layout                           : C L R LFE Lb Rb Lss Rss
Sampling rate                            : 48.0 kHz
Frame rate                               : 93.750 FPS (512 SPF)
Bit depth                                : 24 bits
Compression mode                         : Lossless
Stream size                              : 5.06 GiB (11%)
Title                                    : -HD MA, 7.1, 5847 Kbps
Language                                 : English
Default                                  : No
Forced                                   : No

Text #1
ID                                       : 5
Format                                   : UTF-8
Codec ID                                 : S_TEXT/UTF8
Codec ID/Info                            : UTF-8 Plain Text
Duration                                 : 1 h 58 min
Bit rate                                 : 4 b/s
Count of elements                        : 79
Stream size                              : 3.65 KiB (0%)
Title                                    : Forced
Language                                 : Ukrainian
Default                                  : Yes
Forced                                   : No

Text #2
ID                                       : 6
Format                                   : UTF-8
Codec ID                                 : S_TEXT/UTF8
Codec ID/Info                            : UTF-8 Plain Text
Duration                                 : 2 h 2 min
Bit rate                                 : 102 b/s
Count of elements                        : 1618
Stream size                              : 92.0 KiB (0%)
Title                                    : Full
Language                                 : Ukrainian
Default                                  : No
Forced                                   : No

Text #3
ID                                       : 7
Format                                   : UTF-8
Codec ID                                 : S_TEXT/UTF8
Codec ID/Info                            : UTF-8 Plain Text
Duration                                 : 2 h 1 min
Bit rate                                 : 67 b/s
Count of elements                        : 2221
Stream size                              : 59.6 KiB (0%)
Title                                    : Full
Language                                 : English
Default                                  : No
Forced                                   : No

Menu
00:00:00.000                             : en:Chapter 01
00:07:33.203                             : en:Chapter 02
00:14:56.646                             : en:Chapter 03
00:23:43.255                             : en:Chapter 04
00:31:05.614                             : en:Chapter 05
00:38:43.071                             : en:Chapter 06
00:45:26.349                             : en:Chapter 07
00:53:27.329                             : en:Chapter 08
01:00:22.035                             : en:Chapter 09
01:07:29.254                             : en:Chapter 10
01:12:55.162                             : en:Chapter 11
01:22:12.344                             : en:Chapter 12
01:29:49.092                             : en:Chapter 13
01:36:47.802                             : en:Chapter 14
01:42:08.581                             : en:Chapter 15
01:53:55.912                             : en:Chapter 16
Скріншоти








Джерело: &
Особиста оцінка: 8 - мені сподобалося

Увага! Перед завантаженням переконайтесь, що ваш пристрій відтворення (та/або ПЗ) підтримує H.265 (HEVC)


Золотий реліз (завантажене не впливає на рейтинг)
 Трекер:    Зареєстрований   

Завантажити / скачати фільм українською



відео для новачків



 Зареєстрований:   2020-05-06 21:08
 Розмір:   47.35 GB 
 Оцінка фільму:   9.5/10 (Голосів: 24)
   
Anonymous 







2020-05-06 21:09  
06.05.2020 Роздачу оновлено


Замінив доріжку на АС3 5.1 @ 384 kbps



Ваш часовий пояс: GMT + 2 Години

Нова тема   Відповісти