Джентльмени / The Gentlemen (2019) Remux 1080p Ukr/Eng | Sub Ukr/Eng

Нові коментарі

Нова тема   Відповісти
Автор Повідомлення
Anonymous 







2020-04-11 01:42  


Джентльмени / The Gentlemen (2019) Remux 1080p Ukr/Eng | Sub Ukr/Eng



«Criminal. Class»






Жанр: комедія, кримінал, екшн
Країна: США





Кінокомпанія: Miramax Films
Режисер: Ґай Річі
Актори: Меттью МакКонахі, Чарлі Ханнем, Мішель Докер, Джеремі Стронг, Лайн Рені, Колін Фаррелл, Генрі Голдінг, Том Ву, Чіді Аджуфо, Х'ю Грант


Сюжет:
Мікі Пірсон, емігрант зі Сполучених Штатів, який закінчив Оксфордський університет, вирішив направити свій блискучий розум на створення неймовірно прибуткової бізнес-імперії. Виробництво марихуани завжди була затребуване, так чому ж не відкрити кілька філій у Лондоні, самому серці Сполученого Королівства. Схема вийшло ну дуже вдалою, пора б і продати її якимось грошовим мішкам із Оклахоми. Ось тут-то Пірсона й наздогнав справжній кримінальний світ Англії з його чарівними джентльменами, кожен із яких хотів би встати на шляху в Мікі. Звичайно ж, будуть і перестрілки, і кілька випадкових вбивств, і нестандартні схема - ці джентльмени вміють вести справи витончено.



Тривалість: 01:53:40
Якість: Blu-Ray Remux 1080p

Відео:
кодек:
розмір кадру: 1920x1080
бітрейт: ~ 31600 кб/с

Аудіо # 1:
мова: українська
переклад: професійний дубльований
кодек: 5.1
бітрейт: 384 кб/с

Аудіо # 2:
мова: англійська
переклад: оригінал
кодек: 5.1
бітрейт: 448 кб/с

Аудіо # 3:
мова: англійська
переклад: оригінал
кодек: TrueHD + Atmos 7.1
бітрейт: 3944 кб/с

Джерело озвучення:


Субтитри # 1: (Full)
мова: українська
тип: програмні (м'які)
формат: *.srt

Субтитри # 2 - 3: (Full, SDH)
мова: англійська
тип: програмні (м'які)
формат: *.srt

Info
Код:
General
Complete name                            : The Gentlemen (2019) Remux 1080p [Ukr_Eng] [Video_Hurtom].
Format                                   :
Format version                           : Version 4
File size                                : 29.0 GiB
Duration                                 : 1 h 53 min
Overall bit rate mode                    : Variable
Overall bit rate                         : 36.5 Mb/s
Movie name                               : Джентльмени / The Gentlemen (2019) Remux 1080p Ukr/Eng | Sub Ukr/Eng
Encoded date                             : UTC 2020-05-04 14:10:11
Writing application                      : v30.1.0 ('Forever And More') 64-bit
Writing library                          : libebml v1.3.6 + v1.4.9
Cover                                    : Yes
Attachments                              : cover.jpg

Video
ID                                       : 1
Format                                   : AVC
Format/Info                              : Advanced Video Codec
Format profile                           : [email protected]
Format settings                          : CABAC / 4 Ref Frames
Format settings, CABAC                   : Yes
Format settings, RefFrames               : 4 frames
Codec ID                                 : V_MPEG4/ISO/AVC
Duration                                 : 1 h 53 min
Bit rate mode                            : Variable
Bit rate                                 : 31.6 Mb/s
Maximum bit rate                         : 35.0 Mb/s
Width                                    : 1 920 pixels
Height                                   : 1 080 pixels
Display aspect ratio                     : 16:9
Frame rate mode                          : Constant
Frame rate                               : 23.976 (24000/1001) FPS
Color space                              : YUV
Chroma subsampling                       : 4:2:0
Bit depth                                : 8 bits
Scan type                                : Progressive
Bits/(Pixel*Frame)                       : 0.636
Stream size                              : 25.1 GiB (87%)
Language                                 : English
Default                                  : Yes
Forced                                   : No

Audio #1
ID                                       : 2
Format                                   : AC-3
Format/Info                              : Audio Coding 3
Commercial name                          : Dolby Digital
Codec ID                                 : A_AC3
Duration                                 : 1 h 53 min
Bit rate mode                            : Constant
Bit rate                                 : 384 kb/s
Channel(s)                               : 6 channels
Channel layout                           : L R C LFE Ls Rs
Sampling rate                            : 48.0 kHz
Frame rate                               : 31.250 FPS (1536 SPF)
Bit depth                                : 16 bits
Compression mode                         : Lossy
Stream size                              : 312 MiB (1%)
Title                                    : , 5.1, 384 Kbps
Language                                 : Ukrainian
Service kind                             : Complete Main
Default                                  : Yes
Forced                                   : No

Audio #2
ID                                       : 3
Format                                   : AC-3
Format/Info                              : Audio Coding 3
Commercial name                          : Dolby Digital
Codec ID                                 : A_AC3
Duration                                 : 1 h 53 min
Bit rate mode                            : Constant
Bit rate                                 : 448 kb/s
Channel(s)                               : 6 channels
Channel layout                           : L R C LFE Ls Rs
Sampling rate                            : 48.0 kHz
Frame rate                               : 31.250 FPS (1536 SPF)
Bit depth                                : 16 bits
Compression mode                         : Lossy
Stream size                              : 364 MiB (1%)
Title                                    : , 5.1, 448 Kbps
Language                                 : English
Service kind                             : Complete Main
Default                                  : No
Forced                                   : No

Audio #3
ID                                       : 4
Format                                   : MLP FBA 16-ch
Format/Info                              : Meridian Lossless Packing FBA with 16-channel presentation
Commercial name                          : Dolby TrueHD with Dolby Atmos
Codec ID                                 : A_TRUEHD
Duration                                 : 1 h 53 min
Bit rate mode                            : Variable
Bit rate                                 : 3 944 kb/s
Maximum bit rate                         : 8 085 kb/s
Channel(s)                               : 8 channels
Channel layout                           : L R C LFE Ls Rs Lb Rb
Sampling rate                            : 48.0 kHz
Frame rate                               : 1 200.000 FPS (40 SPF)
Compression mode                         : Lossless
Stream size                              : 3.13 GiB (11%)
Title                                    : TrueHD + Atmos, 7.1, 3944 Kbps
Language                                 : English
Default                                  : No
Forced                                   : No
Number of dynamic objects                : 11
Bed channel count                        : 1 channel
Bed channel configuration                : LFE

Text #1
ID                                       : 5
Format                                   : UTF-8
Codec ID                                 : S_TEXT/UTF8
Codec ID/Info                            : UTF-8 Plain Text
Duration                                 : 1 h 47 min
Bit rate                                 : 135 b/s
Count of elements                        : 1992
Stream size                              : 107 KiB (0%)
Title                                    : Full
Language                                 : Ukrainian
Default                                  : No
Forced                                   : No

Text #2
ID                                       : 6
Format                                   : UTF-8
Codec ID                                 : S_TEXT/UTF8
Codec ID/Info                            : UTF-8 Plain Text
Duration                                 : 1 h 47 min
Bit rate                                 : 84 b/s
Count of elements                        : 1812
Stream size                              : 67.0 KiB (0%)
Title                                    : Full
Language                                 : English
Default                                  : No
Forced                                   : No

Text #3
ID                                       : 7
Format                                   : UTF-8
Codec ID                                 : S_TEXT/UTF8
Codec ID/Info                            : UTF-8 Plain Text
Duration                                 : 1 h 50 min
Bit rate                                 : 94 b/s
Count of elements                        : 2088
Stream size                              : 76.8 KiB (0%)
Title                                    : SDH
Language                                 : English
Default                                  : No
Forced                                   : No

Menu
00:00:00.000                             : en:Chapter 01
00:04:27.100                             : en:Chapter 02
00:08:16.413                             : en:Chapter 03
00:13:42.780                             : en:Chapter 04
00:19:21.494                             : en:Chapter 05
00:24:49.988                             : en:Chapter 06
00:30:23.530                             : en:Chapter 07
00:37:17.944                             : en:Chapter 08
00:41:55.430                             : en:Chapter 09
00:48:38.874                             : en:Chapter 10
00:56:51.199                             : en:Chapter 11
01:03:34.102                             : en:Chapter 12
01:08:45.038                             : en:Chapter 13
01:14:18.204                             : en:Chapter 14
01:19:05.991                             : en:Chapter 15
01:24:30.023                             : en:Chapter 16
01:29:24.776                             : en:Chapter 17
01:34:21.114                             : en:Chapter 18
01:40:11.130                             : en:Chapter 19
01:48:37.511                             : en:Chapter 20

Скріншоти




Джерело: &
Особиста оцінка: 8 - мені сподобалося






Золотий реліз (завантажене не впливає на рейтинг)
 Трекер:    Зареєстрований   

Завантажити / скачати фільм українською



відео для новачків



 Зареєстрований:   2020-05-04 17:10
 Розмір:   28.97 GB 
 Оцінка фільму:   9.3/10 (Голосів: 33)
   
Інші релізи
art.palyutin 
Новенький


З нами з: 23.09.17
Востаннє: 18.01.21
Повідомлень: 5

2020-04-18 17:58  
звук - відстій повний. не зміг дивитись.
ktw14 
Поважний учасник


З нами з: 24.03.11
Востаннє: 18.01.21
Повідомлень: 183

2020-04-21 11:38  
Гарний фільм, з цікавим сюжетом і розв'язкою. Рекомендую
O_omarella! 
Поважний учасник


З нами з: 14.06.13
Востаннє: 16.01.21
Повідомлень: 199

2020-04-23 19:38  
Чудовий фільм, якраз на свій рейтинг! Початок здався трохи нудним, але розв'язка бомба.
Дякую за реліз.

Uberwinder 
VIP


З нами з: 18.11.16
Востаннє: 18.01.21
Повідомлень: 285

2020-05-04 08:27  
Доброго здоров'я!
Чекаємо на оновлення звуку Happy

Anonymous 







2020-05-04 17:11  
Торент файл оновлено. Заміна аудіо на якісніше ( 5.1 | 384 kbps)
fatum69 
Свій


З нами з: 10.12.16
Востаннє: 19.01.21
Повідомлень: 50

2020-05-14 20:47  
Сюжет, актори, музика, атмосфера, подача, ну просто з початку до кінця ТОП.
10 з 10

MakRA 
VIP


З нами з: 10.11.18
Востаннє: 18.01.21
Повідомлень: 1166

2020-05-16 13:04  
Фільм просто насолода для очей, саундтреки також порадували. Непрямолінійний сюжет, яки захоплює і після фінальних титрів хочеться запустити кіно ще раз.
Зірковий склад акторів, "смачний" гумор, страрий добрий стиль Гая Річі Happy
10/10 без вагань!
І просто бомбезний український дубляж ( не дивлячись на те, що довгий час був прихильником подібних стрічок без цензури). Дане озвучення просто неперевершене!

jiga-jiga 
Новенький


З нами з: 11.08.10
Востаннє: 18.01.21
Повідомлень: 3

2021-01-11 17:08  
Фільм шикарний. Від початку й до титрів. Без вагань оцінка 10, давно не дивився настільки якісне кіно. Най більше сподобався , як зіграв Колін Фаррелл
Погоджуюсь з попереднім постом, страрий добрий стиль Гая Річі Wide grin

Ваш часовий пояс: GMT + 2 Години

Нова тема   Відповісти